  0
SECTION
  2
HEADER
  9
$ACADVER
  1
AC1018
  9
$ACADMAINTVER
 70
     0
  9
$DWGCODEPAGE
  3
ANSI_1252
  9
$INSBASE
 10
0.0
 20
0.0
 30
0.0
  9
$EXTMIN
 10
5155.866049700291
 20
-58.97611015248318
 30
0.0
  9
$EXTMAX
 10
5565.866049700291
 20
227.0238898475168
 30
0.0
  9
$LIMMIN
 10
0.0
 20
0.0
  9
$LIMMAX
 10
12.0
 20
9.0
  9
$ORTHOMODE
 70
     0
  9
$REGENMODE
 70
     1
  9
$FILLMODE
 70
     1
  9
$QTEXTMODE
 70
     0
  9
$MIRRTEXT
 70
     1
  9
$LTSCALE
 40
1.0
  9
$ATTMODE
 70
     1
  9
$TEXTSIZE
 40
0.2
  9
$TRACEWID
 40
0.05
  9
$TEXTSTYLE
  7
Standard
  9
$CLAYER
  8
0
  9
$CELTYPE
  6
ByLayer
  9
$CECOLOR
 62
   256
  9
$CELTSCALE
 40
1.0
  9
$DISPSILH
 70
     0
  9
$DIMSCALE
 40
1.0
  9
$DIMASZ
 40
0.18
  9
$DIMEXO
 40
0.0625
  9
$DIMDLI
 40
0.38
  9
$DIMRND
 40
0.0
  9
$DIMDLE
 40
0.0
  9
$DIMEXE
 40
0.18
  9
$DIMTP
 40
0.0
  9
$DIMTM
 40
0.0
  9
$DIMTXT
 40
0.18
  9
$DIMCEN
 40
0.09
  9
$DIMTSZ
 40
0.0
  9
$DIMTOL
 70
     0
  9
$DIMLIM
 70
     0
  9
$DIMTIH
 70
     1
  9
$DIMTOH
 70
     1
  9
$DIMSE1
 70
     0
  9
$DIMSE2
 70
     0
  9
$DIMTAD
 70
     0
  9
$DIMZIN
 70
     0
  9
$DIMBLK
  1

  9
$DIMASO
 70
     1
  9
$DIMSHO
 70
     1
  9
$DIMPOST
  1

  9
$DIMAPOST
  1

  9
$DIMALT
 70
     0
  9
$DIMALTD
 70
     2
  9
$DIMALTF
 40
25.4
  9
$DIMLFAC
 40
1.0
  9
$DIMTOFL
 70
     0
  9
$DIMTVP
 40
0.0
  9
$DIMTIX
 70
     0
  9
$DIMSOXD
 70
     0
  9
$DIMSAH
 70
     0
  9
$DIMBLK1
  1

  9
$DIMBLK2
  1

  9
$DIMSTYLE
  2
Standard
  9
$DIMCLRD
 70
     0
  9
$DIMCLRE
 70
     0
  9
$DIMCLRT
 70
     0
  9
$DIMTFAC
 40
1.0
  9
$DIMGAP
 40
0.09
  9
$DIMJUST
 70
     0
  9
$DIMSD1
 70
     0
  9
$DIMSD2
 70
     0
  9
$DIMTOLJ
 70
     1
  9
$DIMTZIN
 70
     0
  9
$DIMALTZ
 70
     0
  9
$DIMALTTZ
 70
     0
  9
$DIMUPT
 70
     0
  9
$DIMDEC
 70
     4
  9
$DIMTDEC
 70
     4
  9
$DIMALTU
 70
     2
  9
$DIMALTTD
 70
     2
  9
$DIMTXSTY
  7
Standard
  9
$DIMAUNIT
 70
     0
  9
$DIMADEC
 70
     0
  9
$DIMALTRND
 40
0.0
  9
$DIMAZIN
 70
     0
  9
$DIMDSEP
 70
    46
  9
$DIMATFIT
 70
     3
  9
$DIMFRAC
 70
     0
  9
$DIMLDRBLK
  1

  9
$DIMLUNIT
 70
     2
  9
$DIMLWD
 70
    -2
  9
$DIMLWE
 70
    -2
  9
$DIMTMOVE
 70
     0
  9
$LUNITS
 70
     2
  9
$LUPREC
 70
     4
  9
$SKETCHINC
 40
0.1
  9
$FILLETRAD
 40
0.5
  9
$AUNITS
 70
     0
  9
$AUPREC
 70
     0
  9
$MENU
  1
.
  9
$ELEVATION
 40
0.0
  9
$PELEVATION
 40
0.0
  9
$THICKNESS
 40
0.0
  9
$LIMCHECK
 70
     0
  9
$CHAMFERA
 40
0.0
  9
$CHAMFERB
 40
0.0
  9
$CHAMFERC
 40
0.0
  9
$CHAMFERD
 40
0.0
  9
$SKPOLY
 70
     0
  9
$TDCREATE
 40
2458079.56402772
  9
$TDUCREATE
 40
2458079.522361053
  9
$TDUPDATE
 40
2458079.564028264
  9
$TDUUPDATE
 40
2458079.522361597
  9
$TDINDWG
 40
0.0000000116
  9
$TDUSRTIMER
 40
0.0000000116
  9
$USRTIMER
 70
     1
  9
$ANGBASE
 50
0.0
  9
$ANGDIR
 70
     0
  9
$PDMODE
 70
     0
  9
$PDSIZE
 40
0.0
  9
$PLINEWID
 40
0.0
  9
$SPLFRAME
 70
     0
  9
$SPLINETYPE
 70
     6
  9
$SPLINESEGS
 70
     8
  9
$HANDSEED
  5
271
  9
$SURFTAB1
 70
     6
  9
$SURFTAB2
 70
     6
  9
$SURFTYPE
 70
     6
  9
$SURFU
 70
     6
  9
$SURFV
 70
     6
  9
$UCSBASE
  2

  9
$UCSNAME
  2

  9
$UCSORG
 10
0.0
 20
0.0
 30
0.0
  9
$UCSXDIR
 10
1.0
 20
0.0
 30
0.0
  9
$UCSYDIR
 10
0.0
 20
1.0
 30
0.0
  9
$UCSORTHOREF
  2

  9
$UCSORTHOVIEW
 70
     0
  9
$UCSORGTOP
 10
0.0
 20
0.0
 30
0.0
  9
$UCSORGBOTTOM
 10
0.0
 20
0.0
 30
0.0
  9
$UCSORGLEFT
 10
0.0
 20
0.0
 30
0.0
  9
$UCSORGRIGHT
 10
0.0
 20
0.0
 30
0.0
  9
$UCSORGFRONT
 10
0.0
 20
0.0
 30
0.0
  9
$UCSORGBACK
 10
0.0
 20
0.0
 30
0.0
  9
$PUCSBASE
  2

  9
$PUCSNAME
  2

  9
$PUCSORG
 10
0.0
 20
0.0
 30
0.0
  9
$PUCSXDIR
 10
1.0
 20
0.0
 30
0.0
  9
$PUCSYDIR
 10
0.0
 20
1.0
 30
0.0
  9
$PUCSORTHOREF
  2

  9
$PUCSORTHOVIEW
 70
     0
  9
$PUCSORGTOP
 10
0.0
 20
0.0
 30
0.0
  9
$PUCSORGBOTTOM
 10
0.0
 20
0.0
 30
0.0
  9
$PUCSORGLEFT
 10
0.0
 20
0.0
 30
0.0
  9
$PUCSORGRIGHT
 10
0.0
 20
0.0
 30
0.0
  9
$PUCSORGFRONT
 10
0.0
 20
0.0
 30
0.0
  9
$PUCSORGBACK
 10
0.0
 20
0.0
 30
0.0
  9
$USERI1
 70
     0
  9
$USERI2
 70
     0
  9
$USERI3
 70
     0
  9
$USERI4
 70
     0
  9
$USERI5
 70
     0
  9
$USERR1
 40
19.0
  9
$USERR2
 40
0.0
  9
$USERR3
 40
0.0
  9
$USERR4
 40
0.0
  9
$USERR5
 40
0.0
  9
$WORLDVIEW
 70
     1
  9
$SHADEDGE
 70
     3
  9
$SHADEDIF
 70
    70
  9
$TILEMODE
 70
     1
  9
$MAXACTVP
 70
    64
  9
$PINSBASE
 10
0.0
 20
0.0
 30
0.0
  9
$PLIMCHECK
 70
     0
  9
$PEXTMIN
 10
1.00000000000000E+20
 20
1.00000000000000E+20
 30
1.00000000000000E+20
  9
$PEXTMAX
 10
-1.00000000000000E+20
 20
-1.00000000000000E+20
 30
-1.00000000000000E+20
  9
$PLIMMIN
 10
0.0
 20
0.0
  9
$PLIMMAX
 10
12.0
 20
9.0
  9
$UNITMODE
 70
     0
  9
$VISRETAIN
 70
     1
  9
$PLINEGEN
 70
     0
  9
$PSLTSCALE
 70
     1
  9
$TREEDEPTH
 70
  3020
  9
$CMLSTYLE
  2
Standard
  9
$CMLJUST
 70
     0
  9
$CMLSCALE
 40
1.0
  9
$PROXYGRAPHICS
 70
     1
  9
$MEASUREMENT
 70
     1
  9
$CELWEIGHT
370
    -1
  9
$ENDCAPS
280
     0
  9
$JOINSTYLE
280
     0
  9
$LWDISPLAY
290
     0
  9
$INSUNITS
 70
     4
  9
$HYPERLINKBASE
  1

  9
$STYLESHEET
  1

  9
$XEDIT
290
     1
  9
$CEPSNTYPE
380
     0
  9
$PSTYLEMODE
290
     1
  9
$FINGERPRINTGUID
  2
{63D4A736-74BD-43F6-BD64-0E9173B44C97}
  9
$VERSIONGUID
  2
{FAEB1C32-E019-11D5-929B-00C0DF256EC4}
  9
$EXTNAMES
290
     1
  9
$PSVPSCALE
 40
0.0
  9
$OLESTARTUP
290
     0
  9
$SORTENTS
280
   127
  9
$INDEXCTL
280
     0
  9
$HIDETEXT
280
     1
  9
$XCLIPFRAME
290
     0
  9
$HALOGAP
280
     0
  9
$OBSCOLOR
 70
   257
  9
$OBSLTYPE
280
     0
  9
$INTERSECTIONDISPLAY
280
     0
  9
$INTERSECTIONCOLOR
 70
   257
  9
$DIMASSOC
280
     2
  9
$PROJECTNAME
  1

  0
ENDSEC
  0
SECTION
  2
CLASSES
  0
CLASS
  1
ACDBDICTIONARYWDFLT
  2
AcDbDictionaryWithDefault
  3
ObjectDBX Classes
 90
        0
 91
        4
280
     0
281
     0
  0
CLASS
  1
VISUALSTYLE
  2
AcDbVisualStyle
  3
ObjectDBX Classes
 90
     4095
 91
        4
280
     0
281
     0
  0
CLASS
  1
MATERIAL
  2
AcDbMaterial
  3
ObjectDBX Classes
 90
     1153
 91
        4
280
     0
281
     0
  0
CLASS
  1
SCALE
  2
AcDbScale
  3
ObjectDBX Classes
 90
     1153
 91
        4
280
     0
281
     0
  0
CLASS
  1
SUN
  2
AcDbSun
  3
SCENEOE
 90
     1153
 91
        4
280
     0
281
     0
  0
CLASS
  1
DICTIONARYVAR
  2
AcDbDictionaryVar
  3
ObjectDBX Classes
 90
        0
 91
        4
280
     0
281
     0
  0
ENDSEC
  0
SECTION
  2
TABLES
  0
TABLE
  2
VPORT
  5
8
330
0
100
AcDbSymbolTable
 70
     1
  0
VPORT
  5
29
330
8
100
AcDbSymbolTableRecord
100
AcDbViewportTableRecord
  2
*Active
 70
     0
 10
0.0
 20
0.0
 11
1.0
 21
1.0
 12
5360.866049700291
 22
84.02388984751681
 13
0.0
 23
0.0
 14
0.5
 24
0.5
 15
0.5
 25
0.5
 16
0.0
 26
0.0
 36
1.0
 17
0.0
 27
0.0
 37
0.0
 40
314.6
 41
1.60267857142857
 42
50.0
 43
0.0
 44
0.0
 50
0.0
 51
0.0
 71
     0
 72
   100
 73
     1
 74
     3
 75
     0
 76
     0
 77
     0
 78
     0
281
     0
 65
     1
110
0.0
120
0.0
130
0.0
111
1.0
121
0.0
131
0.0
112
0.0
122
1.0
132
0.0
 79
     0
146
0.0
  0
ENDTAB
  0
TABLE
  2
LTYPE
  5
5
330
0
100
AcDbSymbolTable
 70
     9
  0
LTYPE
  5
14
330
5
100
AcDbSymbolTableRecord
100
AcDbLinetypeTableRecord
  2
ByBlock
 70
     0
  3

 72
    65
 73
     0
 40
0.0
  0
LTYPE
  5
15
330
5
100
AcDbSymbolTableRecord
100
AcDbLinetypeTableRecord
  2
ByLayer
 70
     0
  3

 72
    65
 73
     0
 40
0.0
  0
LTYPE
  5
16
330
5
100
AcDbSymbolTableRecord
100
AcDbLinetypeTableRecord
  2
Continuous
 70
     0
  3
Solid line
 72
    65
 73
     0
 40
0.0
  0
LTYPE
  5
6A
330
5
100
AcDbSymbolTableRecord
100
AcDbLinetypeTableRecord
  2
DASHED
 70
     0
  3
Dashed
 72
    65
 73
     2
 40
15.0
 49
7.0
 74
     0
 49
-8.0
 74
     0
  0
LTYPE
  5
6B
330
5
100
AcDbSymbolTableRecord
100
AcDbLinetypeTableRecord
  2
DOTTED
 70
     0
  3
Dotted
 72
    65
 73
     2
 40
1.0
 49
0.0
 74
     0
 49
-1.0
 74
     0
  0
LTYPE
  5
6C
330
5
100
AcDbSymbolTableRecord
100
AcDbLinetypeTableRecord
  2
DOT_CENTER
 70
     0
  3
Dot_Center
 72
    65
 73
     4
 40
14.0
 49
12.0
 74
     0
 49
-1.0
 74
     0
 49
0.0
 74
     0
 49
-1.0
 74
     0
  0
LTYPE
  5
6D
330
5
100
AcDbSymbolTableRecord
100
AcDbLinetypeTableRecord
  2
LONG_DASHED
 70
     0
  3
Long_Dashed
 72
    65
 73
     2
 40
15.0
 49
10.0
 74
     0
 49
-5.0
 74
     0
  0
LTYPE
  5
6E
330
5
100
AcDbSymbolTableRecord
100
AcDbLinetypeTableRecord
  2
DASH_CENTER
 70
     0
  3
Dash_Center
 72
    65
 73
     4
 40
14.0
 49
11.0
 74
     0
 49
-1.0
 74
     0
 49
1.0
 74
     0
 49
-1.0
 74
     0
  0
LTYPE
  5
6F
330
5
100
AcDbSymbolTableRecord
100
AcDbLinetypeTableRecord
  2
PHANTOM
 70
     0
  3
Phantom
 72
    65
 73
     6
 40
13.0
 49
10.0
 74
     0
 49
-1.0
 74
     0
 49
0.0
 74
     0
 49
-1.0
 74
     0
 49
0.0
 74
     0
 49
-1.0
 74
     0
  0
LTYPE
  5
70
330
5
100
AcDbSymbolTableRecord
100
AcDbLinetypeTableRecord
  2
CENTER_DASH_DASH
 70
     0
  3
Center_Dash_Dash
 72
    65
 73
     6
 40
14.0
 49
9.0
 74
     0
 49
-1.0
 74
     0
 49
1.0
 74
     0
 49
-1.0
 74
     0
 49
1.0
 74
     0
 49
-1.0
 74
     0
  0
LTYPE
  5
71
330
5
100
AcDbSymbolTableRecord
100
AcDbLinetypeTableRecord
  2
MITTELLINIE
 70
     0
  3
MITTELLINIE
 72
    65
 73
     4
 40
17.0
 49
13.0
 74
     0
 49
-2.0
 74
     0
 49
0.0
 74
     0
 49
-2.0
 74
     0
  0
ENDTAB
  0
TABLE
  2
LAYER
  5
2
330
0
100
AcDbSymbolTable
 70
     6
  0
LAYER
  5
10
330
2
100
AcDbSymbolTableRecord
100
AcDbLayerTableRecord
  2
0
 70
     0
 62
     7
  6
Continuous
370
    -3
390
F
  0
LAYER
  5
72
330
2
100
AcDbSymbolTableRecord
100
AcDbLayerTableRecord
  2
1
 70
     0
 62
     7
  6
Continuous
370
    -3
390
F
  0
LAYER
  5
73
330
2
100
AcDbSymbolTableRecord
100
AcDbLayerTableRecord
  2
DEFPOINTS
 70
     0
 62
     7
  6
Continuous
290
     0
370
    -3
390
F
  0
LAYER
  5
74
330
2
100
AcDbSymbolTableRecord
100
AcDbLayerTableRecord
  2
DICK
 70
     0
 62
     7
  6
Continuous
370
    -3
390
F
  0
LAYER
  5
75
330
2
100
AcDbSymbolTableRecord
100
AcDbLayerTableRecord
  2
DUENN
 70
     0
 62
     7
  6
Continuous
370
    -3
390
F
  0
LAYER
  5
76
330
2
100
AcDbSymbolTableRecord
100
AcDbLayerTableRecord
  2
MITTELLINIE
 70
     0
 62
     7
  6
Continuous
370
    -3
390
F
  0
ENDTAB
  0
TABLE
  2
STYLE
  5
3
330
0
100
AcDbSymbolTable
 70
     9
  0
STYLE
  5
11
330
3
100
AcDbSymbolTableRecord
100
AcDbTextStyleTableRecord
  2
Standard
 70
     0
 40
0.0
 41
1.0
 50
0.0
 71
     0
 42
0.2
  3
txt
  4

  0
STYLE
  5
B5
330
3
100
AcDbSymbolTableRecord
100
AcDbTextStyleTableRecord
  2
CONVERTER_11
 70
     0
 40
0.0
 41
0.9
 50
0.0
 71
     0
 42
0.2
  3
txt.shx
  4

  0
STYLE
  5
1D3
330
3
100
AcDbSymbolTableRecord
100
AcDbTextStyleTableRecord
  2
CONVERTER_12
 70
     0
 40
0.0
 41
0.76
 50
0.0
 71
     0
 42
0.2
  3
complex.shx
  4

  0
STYLE
  5
1D7
330
3
100
AcDbSymbolTableRecord
100
AcDbTextStyleTableRecord
  2
CONVERTER_13
 70
     0
 40
0.0
 41
0.63
 50
0.0
 71
     0
 42
0.2
  3
txt.shx
  4

  0
STYLE
  5
1D9
330
3
100
AcDbSymbolTableRecord
100
AcDbTextStyleTableRecord
  2
CONVERTER_14
 70
     0
 40
0.0
 41
0.72
 50
0.0
 71
     0
 42
0.2
  3
txt.shx
  4

  0
STYLE
  5
1E5
330
3
100
AcDbSymbolTableRecord
100
AcDbTextStyleTableRecord
  2
CONVERTER_15
 70
     0
 40
0.0
 41
0.66696267749507
 50
0.0
 71
     0
 42
0.2
  3
txt.shx
  4

  0
STYLE
  5
1E8
330
3
100
AcDbSymbolTableRecord
100
AcDbTextStyleTableRecord
  2
CONVERTER_16
 70
     0
 40
0.0
 41
0.54
 50
0.0
 71
     0
 42
0.2
  3
txt.shx
  4

  0
STYLE
  5
1F9
330
3
100
AcDbSymbolTableRecord
100
AcDbTextStyleTableRecord
  2
CONVERTER_17
 70
     0
 40
0.0
 41
0.675
 50
0.0
 71
     0
 42
0.2
  3
txt.shx
  4

  0
STYLE
  5
225
330
3
100
AcDbSymbolTableRecord
100
AcDbTextStyleTableRecord
  2
CONVERTER_18
 70
     0
 40
0.0
 41
0.765
 50
0.0
 71
     0
 42
0.2
  3
txt.shx
  4

  0
ENDTAB
  0
TABLE
  2
VIEW
  5
6
330
0
100
AcDbSymbolTable
 70
     0
  0
ENDTAB
  0
TABLE
  2
UCS
  5
7
330
0
100
AcDbSymbolTable
 70
     0
  0
ENDTAB
  0
TABLE
  2
APPID
  5
9
330
0
100
AcDbSymbolTable
 70
     1
  0
APPID
  5
12
330
9
100
AcDbSymbolTableRecord
100
AcDbRegAppTableRecord
  2
ACAD
 70
     0
  0
ENDTAB
  0
TABLE
  2
DIMSTYLE
  5
A
330
0
100
AcDbSymbolTable
 70
    11
100
AcDbDimStyleTable
  0
DIMSTYLE
105
27
330
A
100
AcDbSymbolTableRecord
100
AcDbDimStyleTableRecord
  2
Standard
 70
     0
178
     0
340
11
  0
DIMSTYLE
105
B9
102
{ACAD_REACTORS
330
BA
102
}
330
A
100
AcDbSymbolTableRecord
100
AcDbDimStyleTableRecord
  2
ME10_DIM_10
 70
     0
 41
3.5
 42
0.0
 44
2.0
 73
     0
 74
     0
 77
     1
 78
     8
140
3.5
147
2.0
172
     1
173
     1
174
     1
175
     1
176
     3
177
     3
271
     2
178
     4
271
     2
340
B5
  0
DIMSTYLE
105
C4
102
{ACAD_REACTORS
330
C5
102
}
330
A
100
AcDbSymbolTableRecord
100
AcDbDimStyleTableRecord
  2
ME10_DIM_11
 70
     0
 41
3.5
 42
0.0
 44
2.0
 73
     0
 74
     0
 77
     1
 78
     8
140
3.5
147
2.0
172
     1
173
     1
174
     1
175
     1
176
     3
177
     3
271
     2
178
     4
271
     2
340
B5
  0
DIMSTYLE
105
CF
102
{ACAD_REACTORS
330
D0
102
}
330
A
100
AcDbSymbolTableRecord
100
AcDbDimStyleTableRecord
  2
ME10_DIM_12
 70
     0
 41
3.49999999999987
 42
0.0
 44
2.0
 73
     0
 74
     0
 77
     1
 78
     8
140
3.49999999999987
147
1.0
172
     1
173
     1
174
     1
175
     1
176
     3
177
     3
271
     2
178
     4
271
     2
340
B5
  0
DIMSTYLE
105
DA
102
{ACAD_REACTORS
330
DB
102
}
330
A
100
AcDbSymbolTableRecord
100
AcDbDimStyleTableRecord
  2
ME10_DIM_13
 70
     0
 41
3.49999999999987
 42
0.0
 44
2.0
 73
     0
 74
     0
 77
     1
 78
     8
140
3.49999999999987
147
1.0
172
     1
173
     1
174
     1
175
     1
176
     3
177
     3
271
     2
178
     4
271
     2
340
B5
  0
DIMSTYLE
105
E5
102
{ACAD_REACTORS
330
E6
102
}
330
A
100
AcDbSymbolTableRecord
100
AcDbDimStyleTableRecord
  2
ME10_DIM_14
 70
     0
 41
3.49999999999987
 42
0.0
 44
2.0
 73
     0
 74
     0
 77
     1
 78
     8
140
3.49999999999987
147
1.0
172
     1
173
     1
174
     1
175
     1
176
     3
177
     3
271
     2
178
     4
271
     2
340
B5
  0
DIMSTYLE
105
F0
102
{ACAD_REACTORS
330
F1
102
}
330
A
100
AcDbSymbolTableRecord
100
AcDbDimStyleTableRecord
  2
ME10_DIM_15
 70
     0
 41
3.49999999999987
 42
0.0
 44
2.0
 73
     0
 74
     0
 77
     1
 78
     8
140
3.49999999999987
147
1.0
172
     1
173
     1
174
     1
175
     1
176
     3
177
     3
271
     2
178
     4
271
     2
340
B5
  0
DIMSTYLE
105
FB
102
{ACAD_REACTORS
330
FC
102
}
330
A
100
AcDbSymbolTableRecord
100
AcDbDimStyleTableRecord
  2
ME10_DIM_16
 70
     0
 41
3.49999999999987
 42
0.0
 44
2.0
 73
     0
 74
     0
 77
     1
 78
     8
140
3.49999999999987
147
1.0
172
     1
173
     1
174
     1
175
     1
176
     3
177
     3
271
     2
178
     4
271
     2
340
B5
  0
DIMSTYLE
105
106
102
{ACAD_REACTORS
330
107
102
}
330
A
100
AcDbSymbolTableRecord
100
AcDbDimStyleTableRecord
  2
ME10_DIM_17
 70
     0
 41
3.49999999999987
 42
0.0
 44
2.0
 73
     0
 74
     0
 77
     1
 78
     8
140
3.49999999999987
147
1.0
172
     1
173
     1
174
     1
175
     1
176
     3
177
     3
271
     2
178
     4
271
     2
340
B5
  0
DIMSTYLE
105
111
102
{ACAD_REACTORS
330
112
102
}
330
A
100
AcDbSymbolTableRecord
100
AcDbDimStyleTableRecord
  2
ME10_DIM_18
 70
     0
 41
3.49999999999987
 42
0.0
 44
2.0
 73
     0
 74
     0
 77
     1
 78
     8
140
3.49999999999987
147
1.0
172
     1
173
     1
174
     1
175
     1
176
     3
177
     3
271
     2
178
     4
271
     2
340
B5
  0
DIMSTYLE
105
11C
102
{ACAD_REACTORS
330
11D
102
}
330
A
100
AcDbSymbolTableRecord
100
AcDbDimStyleTableRecord
  2
ME10_DIM_19
 70
     0
 41
3.49999999999987
 42
0.0
 44
2.0
 73
     0
 74
     0
 77
     1
 78
     8
140
3.49999999999987
147
1.0
172
     1
173
     1
174
     1
175
     1
176
     3
177
     3
271
     2
178
     4
271
     2
340
B5
  0
ENDTAB
  0
TABLE
  2
BLOCK_RECORD
  5
1
330
0
100
AcDbSymbolTable
 70
    20
  0
BLOCK_RECORD
  5
1F
330
1
100
AcDbSymbolTableRecord
100
AcDbBlockTableRecord
  2
*Model_Space
340
22
  0
BLOCK_RECORD
  5
1B
330
1
100
AcDbSymbolTableRecord
100
AcDbBlockTableRecord
  2
*Paper_Space
340
1E
  0
BLOCK_RECORD
  5
23
330
1
100
AcDbSymbolTableRecord
100
AcDbBlockTableRecord
  2
*Paper_Space0
340
26
  0
BLOCK_RECORD
  5
77
330
1
100
AcDbSymbolTableRecord
100
AcDbBlockTableRecord
  2
1
340
0
102
{BLKREFS
331
81
102
}
  0
BLOCK_RECORD
  5
7A
330
1
100
AcDbSymbolTableRecord
100
AcDbBlockTableRecord
  2
a3kl
340
0
102
{BLKREFS
331
7E
102
}
  0
BLOCK_RECORD
  5
7D
330
1
100
AcDbSymbolTableRecord
100
AcDbBlockTableRecord
  2
rahmen
340
0
102
{BLKREFS
331
82
102
}
  0
BLOCK_RECORD
  5
AF
330
1
100
AcDbSymbolTableRecord
100
AcDbBlockTableRecord
  2
*D4
340
0
  0
BLOCK_RECORD
  5
BB
330
1
100
AcDbSymbolTableRecord
100
AcDbBlockTableRecord
  2
*D5
340
0
  0
BLOCK_RECORD
  5
C6
330
1
100
AcDbSymbolTableRecord
100
AcDbBlockTableRecord
  2
*D6
340
0
  0
BLOCK_RECORD
  5
D1
330
1
100
AcDbSymbolTableRecord
100
AcDbBlockTableRecord
  2
*D7
340
0
  0
BLOCK_RECORD
  5
DC
330
1
100
AcDbSymbolTableRecord
100
AcDbBlockTableRecord
  2
*D8
340
0
  0
BLOCK_RECORD
  5
E7
330
1
100
AcDbSymbolTableRecord
100
AcDbBlockTableRecord
  2
*D9
340
0
  0
BLOCK_RECORD
  5
F2
330
1
100
AcDbSymbolTableRecord
100
AcDbBlockTableRecord
  2
*D10
340
0
  0
BLOCK_RECORD
  5
FD
330
1
100
AcDbSymbolTableRecord
100
AcDbBlockTableRecord
  2
*D11
340
0
  0
BLOCK_RECORD
  5
108
330
1
100
AcDbSymbolTableRecord
100
AcDbBlockTableRecord
  2
*D12
340
0
  0
BLOCK_RECORD
  5
113
330
1
100
AcDbSymbolTableRecord
100
AcDbBlockTableRecord
  2
*D13
340
0
  0
BLOCK_RECORD
  5
11E
330
1
100
AcDbSymbolTableRecord
100
AcDbBlockTableRecord
  2
*D14
340
0
102
{BLKREFS
331
124
102
}
  0
BLOCK_RECORD
  5
125
330
1
100
AcDbSymbolTableRecord
100
AcDbBlockTableRecord
  2
*D15
340
0
102
{BLKREFS
331
12B
102
}
  0
BLOCK_RECORD
  5
12C
330
1
100
AcDbSymbolTableRecord
100
AcDbBlockTableRecord
  2
*D16
340
0
102
{BLKREFS
331
132
102
}
  0
BLOCK_RECORD
  5
133
330
1
100
AcDbSymbolTableRecord
100
AcDbBlockTableRecord
  2
*D17
340
0
102
{BLKREFS
331
139
102
}
  0
BLOCK_RECORD
  5
13A
330
1
100
AcDbSymbolTableRecord
100
AcDbBlockTableRecord
  2
*D18
340
0
102
{BLKREFS
331
141
102
}
  0
BLOCK_RECORD
  5
142
330
1
100
AcDbSymbolTableRecord
100
AcDbBlockTableRecord
  2
*D19
340
0
102
{BLKREFS
331
149
102
}
  0
ENDTAB
  0
ENDSEC
  0
SECTION
  2
BLOCKS
  0
BLOCK
  5
20
330
1F
100
AcDbEntity
  8
0
100
AcDbBlockBegin
  2
*Model_Space
 70
     0
 10
0.0
 20
0.0
 30
0.0
  3
*Model_Space
  1
*Model_Space
  0
ENDBLK
  5
21
330
1F
100
AcDbEntity
  8
0
100
AcDbBlockEnd
  0
BLOCK
  5
1C
330
1B
100
AcDbEntity
 67
     1
  8
0
100
AcDbBlockBegin
  2
*Paper_Space
 70
     0
 10
0.0
 20
0.0
 30
0.0
  3
*Paper_Space
  1
*Paper_Space
  0
ENDBLK
  5
1D
330
1B
100
AcDbEntity
 67
     1
  8
0
100
AcDbBlockEnd
  0
BLOCK
  5
24
330
23
100
AcDbEntity
  8
0
100
AcDbBlockBegin
  2
*Paper_Space0
 70
     0
 10
0.0
 20
0.0
 30
0.0
  3
*Paper_Space0
  1
*Paper_Space0
  0
ENDBLK
  5
25
330
23
100
AcDbEntity
  8
0
100
AcDbBlockEnd
  0
BLOCK
  5
78
330
77
100
AcDbEntity
  8
0
100
AcDbBlockBegin
  2
1
 70
     0
 10
5209.524363722698
 20
62.9576199855708
 30
0.0
  3
1
  1
1
  0
POINT
  5
83
330
77
100
AcDbEntity
  8
DUENN
 62
     3
100
AcDbPoint
 10
5373.426149381334
 20
128.9576199855708
 30
0.0
  0
POINT
  5
84
330
77
100
AcDbEntity
  8
DUENN
 62
     3
100
AcDbPoint
 10
5373.426149381334
 20
129.6709565986188
 30
0.0
  0
POINT
  5
85
330
77
100
AcDbEntity
  8
DUENN
 62
     3
100
AcDbPoint
 10
5373.426149381334
 20
129.6709565986188
 30
0.0
  0
POINT
  5
86
330
77
100
AcDbEntity
  8
DUENN
 62
     3
100
AcDbPoint
 10
5373.426149381334
 20
128.9576199855708
 30
0.0
  0
POINT
  5
87
330
77
100
AcDbEntity
  8
DUENN
 62
     3
100
AcDbPoint
 10
5373.426149381334
 20
166.2521657234268
 30
0.0
  0
POINT
  5
88
330
77
100
AcDbEntity
  8
DUENN
 62
     3
100
AcDbPoint
 10
5373.426149381334
 20
166.2521657234268
 30
0.0
  0
POINT
  5
89
330
77
100
AcDbEntity
  8
DUENN
 62
     3
100
AcDbPoint
 10
5305.426149381334
 20
128.9576199855708
 30
0.0
  0
POINT
  5
8A
330
77
100
AcDbEntity
  8
DUENN
 62
     3
100
AcDbPoint
 10
5225.426149381334
 20
128.6709565986188
 30
0.0
  0
POINT
  5
8B
330
77
100
AcDbEntity
  8
DUENN
 62
     3
100
AcDbPoint
 10
5521.426149381334
 20
128.6709565986188
 30
0.0
  0
POINT
  5
8C
330
77
100
AcDbEntity
  8
DUENN
 62
     3
100
AcDbPoint
 10
5441.426149381334
 20
128.9576199855708
 30
0.0
  0
POINT
  5
8D
330
77
100
AcDbEntity
  8
DUENN
 62
     3
100
AcDbPoint
 10
5335.920005303372
 20
128.9576199855708
 30
0.0
  0
POINT
  5
8E
330
77
100
AcDbEntity
  8
DUENN
 62
     3
100
AcDbPoint
 10
5410.932293459298
 20
128.9576199855708
 30
0.0
  0
POINT
  5
8F
330
77
100
AcDbEntity
  8
DUENN
 62
     3
100
AcDbPoint
 10
5531.426149381334
 20
127.9576199855708
 30
0.0
  0
POINT
  5
90
330
77
100
AcDbEntity
  8
DUENN
 62
     3
100
AcDbPoint
 10
5534.426149381334
 20
150.3246669490289
 30
0.0
  0
POINT
  5
91
330
77
100
AcDbEntity
  8
DUENN
 62
     3
100
AcDbPoint
 10
5215.426149381334
 20
127.9576199855708
 30
0.0
  0
POINT
  5
92
330
77
100
AcDbEntity
  8
DUENN
 62
     3
100
AcDbPoint
 10
5212.426149381334
 20
150.3246669490289
 30
0.0
  0
POINT
  5
93
330
77
100
AcDbEntity
  8
DEFPOINTS
 62
     3
100
AcDbPoint
 10
5534.426149381334
 20
146.9576199855708
 30
0.0
  0
POINT
  5
94
330
77
100
AcDbEntity
  8
DEFPOINTS
 62
     3
100
AcDbPoint
 10
5521.426149381334
 20
127.9576199855708
 30
0.0
  0
POINT
  5
95
330
77
100
AcDbEntity
  8
DEFPOINTS
 62
     3
100
AcDbPoint
 10
5521.426149381334
 20
117.9576199855708
 30
0.0
  0
POINT
  5
96
330
77
100
AcDbEntity
  8
DEFPOINTS
 62
     3
100
AcDbPoint
 10
5212.426149381334
 20
146.9576199855708
 30
0.0
  0
POINT
  5
97
330
77
100
AcDbEntity
  8
DEFPOINTS
 62
     3
100
AcDbPoint
 10
5225.426149381334
 20
127.9576199855708
 30
0.0
  0
POINT
  5
98
330
77
100
AcDbEntity
  8
DEFPOINTS
 62
     3
100
AcDbPoint
 10
5225.426149381334
 20
117.9576199855708
 30
0.0
  0
LINE
  5
99
330
77
100
AcDbEntity
  8
DICK
  6
Continuous
 62
     1
100
AcDbLine
 10
5180.997958507605
 20
91.9576199855708
 30
0.0
 11
5212.576809049807
 21
91.95761998557082
 31
0.0
  0
LINE
  5
9A
330
77
100
AcDbEntity
  8
1
  6
DOT_CENTER
 62
     3
100
AcDbLine
 10
5373.426149381334
 20
176.9576199855708
 30
0.0
 11
5373.426149381334
 21
97.9312370257825
 31
0.0
  0
LINE
  5
9B
330
77
100
AcDbEntity
  8
MITTELLINIE
  6
MITTELLINIE
 62
     3
100
AcDbLine
 10
5209.339951618861
 20
127.9576199855708
 30
0.0
 11
5237.708679958902
 21
127.9576199855708
 31
0.0
  0
LINE
  5
9C
330
77
100
AcDbEntity
  8
DUENN
  6
DOT_CENTER
 62
     3
100
AcDbLine
 10
5212.426149381334
 20
152.4153251272529
 30
0.0
 11
5212.426149381334
 21
141.1642042739528
 31
0.0
  0
LINE
  5
9D
330
77
100
AcDbEntity
  8
DICK
  6
Continuous
 62
     1
100
AcDbLine
 10
5555.396686955844
 20
91.9576199855708
 30
0.0
 11
5534.275489712862
 21
91.95761998557082
 31
0.0
  0
LINE
  5
9E
330
77
100
AcDbEntity
  8
DUENN
  6
DOT_CENTER
 62
     3
100
AcDbLine
 10
5534.426149381334
 20
152.4153251272529
 30
0.0
 11
5534.426149381334
 21
141.1642042739528
 31
0.0
  0
LINE
  5
9F
330
77
100
AcDbEntity
  8
MITTELLINIE
  6
MITTELLINIE
 62
     3
100
AcDbLine
 10
5540.374387095194
 20
146.9576199855708
 30
0.0
 11
5528.210717301806
 21
146.9576199855708
 31
0.0
  0
LINE
  5
A0
330
77
100
AcDbEntity
  8
0
  6
Continuous
 62
     3
100
AcDbLine
 10
5534.626149381335
 20
91.95761998557082
 30
0.0
 11
5539.554654175766
 21
91.95761998557082
 31
0.0
  0
LINE
  5
A1
330
77
100
AcDbEntity
  8
MITTELLINIE
  6
MITTELLINIE
 62
     3
100
AcDbLine
 10
5521.426149381334
 20
142.6127176739167
 30
0.0
 11
5521.426149381334
 21
112.5870162200268
 31
0.0
  0
LINE
  5
A2
330
77
100
AcDbEntity
  8
DICK
  6
Continuous
 62
     1
100
AcDbLine
 10
5494.179922429191
 20
109.0994476034228
 30
0.0
 11
5498.157930410933
 21
105.6101134982989
 31
0.0
  0
LINE
  5
A3
330
77
100
AcDbEntity
  8
MITTELLINIE
  6
MITTELLINIE
 62
     3
100
AcDbLine
 10
5537.512347143807
 20
127.9576199855708
 30
0.0
 11
5509.143618803767
 21
127.9576199855708
 31
0.0
  0
LINE
  5
A4
330
77
100
AcDbEntity
  8
DICK
  6
Continuous
 62
     1
100
AcDbLine
 10
5441.426149381334
 20
128.9576199855708
 30
0.0
 11
5373.426149381334
 21
128.9576199855708
 31
0.0
  0
LINE
  5
A5
330
77
100
AcDbEntity
  8
MITTELLINIE
  6
MITTELLINIE
 62
     3
100
AcDbLine
 10
5206.477911667476
 20
146.9576199855708
 30
0.0
 11
5218.641581460863
 21
146.9576199855708
 31
0.0
  0
LINE
  5
A6
330
77
100
AcDbEntity
  8
DICK
  6
Continuous
 62
     1
100
AcDbLine
 10
5252.672376333478
 20
109.0994476034228
 30
0.0
 11
5248.694368351735
 21
105.6101134982989
 31
0.0
  0
LINE
  5
A7
330
77
100
AcDbEntity
  8
MITTELLINIE
  6
MITTELLINIE
 62
     3
100
AcDbLine
 10
5225.426149381334
 20
142.6127176739167
 30
0.0
 11
5225.426149381334
 21
112.5870162200268
 31
0.0
  0
LINE
  5
A8
330
77
100
AcDbEntity
  8
DICK
  6
Continuous
 62
     1
100
AcDbLine
 10
5305.426149381334
 20
128.9576199855708
 30
0.0
 11
5373.426149381334
 21
128.9576199855708
 31
0.0
  0
ARC
  5
A9
330
77
100
AcDbEntity
  8
DICK
  6
Continuous
 62
     1
100
AcDbCircle
 10
5212.426149381334
 20
146.9576199855708
 30
0.0
 40
54.99999999999999
100
AcDbArc
 50
270.0
 51
311.255818543833
  0
ARC
  5
AA
330
77
100
AcDbEntity
  8
DICK
  6
Continuous
 62
     1
100
AcDbCircle
 10
5534.426149381334
 20
146.9576199855708
 30
0.0
 40
54.99999999999951
100
AcDbArc
 50
228.744181456167
 51
270.0
  0
ARC
  5
AB
330
77
100
AcDbEntity
  8
DICK
  6
Continuous
 62
     1
100
AcDbCircle
 10
5441.426149381334
 20
48.9576199855708
 30
0.0
 40
80.00000000000148
100
AcDbArc
 50
48.74418145616741
 51
90.0
  0
ARC
  5
AC
330
77
100
AcDbEntity
  8
DICK
  6
Continuous
 62
     1
100
AcDbCircle
 10
5305.426149381334
 20
48.9576199855708
 30
0.0
 40
80.0
100
AcDbArc
 50
90.0
 51
131.2558185438321
  0
CIRCLE
  5
AD
330
77
100
AcDbEntity
  8
DICK
  6
Continuous
 62
     1
100
AcDbCircle
 10
5521.426149381334
 20
127.9576199855708
 30
0.0
 40
10.0
  0
CIRCLE
  5
AE
330
77
100
AcDbEntity
  8
DICK
  6
Continuous
 62
     1
100
AcDbCircle
 10
5225.426149381334
 20
127.9576199855708
 30
0.0
 40
10.0
  0
DIMENSION
  5
BA
330
77
100
AcDbEntity
  8
1
100
AcDbDimension
  2
*D4
 10
5425.95134672763
 20
128.9576199855708
 30
0.0
 11
5422.20134672763
 21
112.224220883401
 31
0.0
 70
    32
  1
<>
 71
     5
 42
-1.0
 53
90.0
  3
ME10_DIM_10
100
AcDbAlignedDimension
 13
5534.275489712862
 23
91.95761998557082
 33
0.0
 14
5441.426149381334
 24
128.9576199855708
 34
0.0
 50
90.0
100
AcDbRotatedDimension
  0
DIMENSION
  5
C5
330
77
100
AcDbEntity
  8
1
100
AcDbDimension
  2
*D5
 10
5321.87442365066
 20
91.95761998557082
 30
0.0
 11
5318.12442365066
 21
113.716363149737
 31
0.0
 70
    32
  1
<>
 71
     5
 42
-1.0
 53
90.0
  3
ME10_DIM_11
100
AcDbAlignedDimension
 13
5305.426149381334
 23
128.9576199855708
 33
0.0
 14
5212.426149381334
 24
91.95761998557082
 34
0.0
 50
90.0
100
AcDbRotatedDimension
  0
DIMENSION
  5
D0
330
77
100
AcDbEntity
  8
1
100
AcDbDimension
  2
*D6
 10
5373.426149381334
 20
167.6569859307945
 30
0.0
 11
5292.388728240897
 21
170.4069859307944
 31
0.0
 70
    32
  1
<>
 71
     5
 42
-1.0
 53
0.00013888888889
  3
ME10_DIM_12
100
AcDbAlignedDimension
 13
5212.426149381334
 23
152.4153251272529
 33
0.0
 14
5373.426149381334
 24
128.9576199855708
 34
0.0
100
AcDbRotatedDimension
  0
DIMENSION
  5
DB
330
77
100
AcDbEntity
  8
1
100
AcDbDimension
  2
*D7
 10
5373.426149381335
 20
167.7037949035065
 30
0.0
 11
5456.200626893075
 21
170.4537949035064
 31
0.0
 70
    32
  1
<>
 71
     5
 42
-1.0
 53
0.00013888888889
  3
ME10_DIM_13
100
AcDbAlignedDimension
 13
5534.426149381334
 23
152.4153251272529
 33
0.0
 14
5373.426149381334
 24
128.9576199855708
 34
0.0
100
AcDbRotatedDimension
  0
DIMENSION
  5
E6
330
77
100
AcDbEntity
  8
DUENN
100
AcDbDimension
  2
*D8
 10
5373.426149381334
 20
155.6627291608723
 30
0.0
 11
5453.426149381334
 21
158.4127291608722
 31
0.0
 70
    32
  1
<>
 71
     5
 42
-1.0
 53
0.00013888888889
  3
ME10_DIM_14
100
AcDbAlignedDimension
 13
5521.426149381334
 23
128.6709565986188
 33
0.0
 14
5373.426149381334
 24
128.9576199855708
 34
0.0
100
AcDbRotatedDimension
  0
DIMENSION
  5
F1
330
77
100
AcDbEntity
  8
DUENN
100
AcDbDimension
  2
*D9
 10
5373.426149381334
 20
155.6627291608723
 30
0.0
 11
5296.426149381334
 21
158.4127291608722
 31
0.0
 70
    32
  1
<>
 71
     5
 42
-1.0
 53
0.00013888888889
  3
ME10_DIM_15
100
AcDbAlignedDimension
 13
5225.426149381334
 23
128.6709565986188
 33
0.0
 14
5373.426149381334
 24
128.9576199855708
 34
0.0
100
AcDbRotatedDimension
  0
DIMENSION
  5
FC
330
77
100
AcDbEntity
  8
DUENN
100
AcDbDimension
  2
*D10
 10
5373.426149381334
 20
143.0035062667108
 30
0.0
 11
5340.426149381334
 21
145.7535062667108
 31
0.0
 70
    32
  1
<>
 71
     5
 42
-1.0
 53
0.00013888888889
  3
ME10_DIM_16
100
AcDbAlignedDimension
 13
5305.426149381334
 23
128.9576199855708
 33
0.0
 14
5373.426149381334
 24
128.9576199855708
 34
0.0
100
AcDbRotatedDimension
  0
DIMENSION
  5
107
330
77
100
AcDbEntity
  8
DUENN
100
AcDbDimension
  2
*D11
 10
5373.426149381334
 20
143.0035062667108
 30
0.0
 11
5412.426149381334
 21
145.7535062667108
 31
0.0
 70
    32
  1
<>
 71
     5
 42
-1.0
 53
0.00013888888889
  3
ME10_DIM_17
100
AcDbAlignedDimension
 13
5441.426149381334
 23
128.9576199855708
 33
0.0
 14
5373.426149381334
 24
128.9576199855708
 34
0.0
100
AcDbRotatedDimension
  0
DIMENSION
  5
112
330
77
100
AcDbEntity
  8
DUENN
100
AcDbDimension
  2
*D12
 10
5538.189375847416
 20
127.9576199855708
 30
0.0
 11
5535.439375847416
 21
110.9576199855708
 31
0.0
 70
    32
  1
<>
 71
     5
 42
-1.0
 53
90.0
  3
ME10_DIM_18
100
AcDbAlignedDimension
 13
5534.275489712862
 23
91.95761998557082
 33
0.0
 14
5531.426149381334
 24
127.9576199855708
 34
0.0
 50
90.0
100
AcDbRotatedDimension
  0
DIMENSION
  5
11D
330
77
100
AcDbEntity
  8
1
100
AcDbDimension
  2
*D13
 10
5204.621031526397
 20
91.9576199855708
 30
0.0
 11
5201.871031526397
 21
115.2416828904774
 31
0.0
 70
    32
  1
<>
 71
     5
 42
-1.0
 53
90.0
  3
ME10_DIM_19
100
AcDbAlignedDimension
 13
5209.339951618861
 23
127.9576199855708
 33
0.0
 14
5212.576809049807
 24
91.95761998557082
 34
0.0
 50
90.0
100
AcDbRotatedDimension
  0
INSERT
  5
124
330
77
100
AcDbEntity
  8
1
100
AcDbBlockReference
  2
*D14
 10
0.0
 20
0.0
 30
0.0
  0
INSERT
  5
12B
330
77
100
AcDbEntity
  8
1
100
AcDbBlockReference
  2
*D15
 10
0.0
 20
0.0
 30
0.0
  0
INSERT
  5
132
330
77
100
AcDbEntity
  8
1
100
AcDbBlockReference
  2
*D16
 10
0.0
 20
0.0
 30
0.0
  0
INSERT
  5
139
330
77
100
AcDbEntity
  8
1
100
AcDbBlockReference
  2
*D17
 10
0.0
 20
0.0
 30
0.0
  0
INSERT
  5
141
330
77
100
AcDbEntity
  8
1
100
AcDbBlockReference
  2
*D18
 10
0.0
 20
0.0
 30
0.0
  0
INSERT
  5
149
330
77
100
AcDbEntity
  8
1
100
AcDbBlockReference
  2
*D19
 10
0.0
 20
0.0
 30
0.0
  0
ENDBLK
  5
79
330
77
100
AcDbEntity
  8
0
100
AcDbBlockEnd
  0
BLOCK
  5
7B
330
7A
100
AcDbEntity
  8
0
100
AcDbBlockBegin
  2
a3kl
 70
     0
 10
5164.93149649188
 20
-53.7840607800019
 30
0.0
  3
a3kl
  1
a3kl
  0
LINE
  5
14A
330
7A
100
AcDbEntity
  8
0
  6
Continuous
 62
     2
100
AcDbLine
 10
5565.866049700291
 20
227.0238898475168
 30
0.0
 11
5565.866049700291
 21
-58.97611015248318
 31
0.0
  0
LINE
  5
14B
330
7A
100
AcDbEntity
  8
0
  6
Continuous
 62
     2
100
AcDbLine
 10
5170.866049700291
 20
227.0238898475168
 30
0.0
 11
5565.866049700291
 21
227.0238898475168
 31
0.0
  0
LINE
  5
14C
330
7A
100
AcDbEntity
  8
1
  6
Continuous
 62
     2
100
AcDbLine
 10
5155.866049700291
 20
-58.97611015248318
 30
0.0
 11
5565.866049700291
 21
-58.97611015248318
 31
0.0
  0
LINE
  5
14D
330
7A
100
AcDbEntity
  8
0
  6
Continuous
 62
     2
100
AcDbLine
 10
5155.866049700291
 20
227.0238898475168
 30
0.0
 11
5170.866049700291
 21
227.0238898475168
 31
0.0
  0
LINE
  5
14E
330
7A
100
AcDbEntity
  8
0
  6
Continuous
 62
     2
100
AcDbLine
 10
5155.866049700291
 20
-58.97611015248318
 30
0.0
 11
5155.866049700291
 21
227.0238898475168
 31
0.0
  0
LINE
  5
14F
330
7A
100
AcDbEntity
  8
0
  6
Continuous
 62
     3
100
AcDbLine
 10
5170.866049700291
 20
-37.47611015248318
 30
0.0
 11
5170.866049700291
 21
227.0238898475168
 31
0.0
  0
LINE
  5
150
330
7A
100
AcDbEntity
  8
1
  6
Continuous
 62
     1
100
AcDbLine
 10
5483.866049700291
 20
-53.47611015248318
 30
0.0
 11
5510.866049700291
 21
-53.47611015248318
 31
0.0
  0
LINE
  5
151
330
7A
100
AcDbEntity
  8
1
  6
Continuous
 62
     1
100
AcDbLine
 10
5386.866049700291
 20
-58.97611015248318
 30
0.0
 11
5386.866049700291
 21
-15.97611015248318
 31
0.0
  0
LINE
  5
152
330
7A
100
AcDbEntity
  8
0
  6
Continuous
 62
     1
100
AcDbLine
 10
5433.866049700291
 20
-27.97611015248318
 30
0.0
 11
5474.866049700291
 21
-27.97611015248318
 31
0.0
  0
LINE
  5
153
330
7A
100
AcDbEntity
  8
0
  6
Continuous
 62
     3
100
AcDbLine
 10
5392.366049700291
 20
-58.97611015248318
 30
0.0
 11
5392.366049700291
 21
-15.97611015248318
 31
0.0
  0
LINE
  5
154
330
7A
100
AcDbEntity
  8
0
  6
Continuous
 62
     1
100
AcDbLine
 10
5483.866049700291
 20
-45.97611015248318
 30
0.0
 11
5433.866049700291
 21
-45.97611015248318
 31
0.0
  0
LINE
  5
155
330
7A
100
AcDbEntity
  8
0
  6
Continuous
 62
     1
100
AcDbLine
 10
5483.866049700291
 20
-39.14277686248319
 30
0.0
 11
5510.866049700291
 21
-39.14277686248318
 31
0.0
  0
LINE
  5
156
330
7A
100
AcDbEntity
  8
0
  6
Continuous
 62
     1
100
AcDbLine
 10
5483.866049700291
 20
-32.97611015248318
 30
0.0
 11
5483.866049700291
 21
-58.97611015248318
 31
0.0
  0
LINE
  5
157
330
7A
100
AcDbEntity
  8
0
  6
Continuous
 62
     7
100
AcDbLine
 10
5439.926046470881
 20
-20.10527796213967
 30
0.0
 11
5439.926046470881
 21
-20.21701100100359
 31
0.0
  0
LINE
  5
158
330
7A
100
AcDbEntity
  8
0
  6
Continuous
 62
     7
100
AcDbLine
 10
5448.026112646843
 20
-18.75490304279757
 30
0.0
 11
5445.024658737702
 21
-18.75490304279759
 31
0.0
  0
LINE
  5
159
330
7A
100
AcDbEntity
  8
0
  6
Continuous
 62
     7
100
AcDbLine
 10
5446.259263145163
 20
-20.51252602661368
 30
0.0
 11
5448.16124380652
 21
-19.19311017136318
 31
0.0
  0
LINE
  5
15A
330
7A
100
AcDbEntity
  8
0
  6
Continuous
 62
     7
100
AcDbLine
 10
5448.103551517344
 20
-20.51252602661369
 30
0.0
 11
5446.259263145163
 21
-20.51252602661368
 31
0.0
  0
LINE
  5
15B
330
7A
100
AcDbEntity
  8
0
  6
Continuous
 62
     7
100
AcDbLine
 10
5448.16124380652
 20
-20.87175507736318
 30
0.0
 11
5448.16124380652
 21
-20.57007282858557
 31
0.0
  0
LINE
  5
15C
330
7A
100
AcDbEntity
  8
0
  6
Continuous
 62
     7
100
AcDbLine
 10
5445.024658737702
 20
-20.92930187933498
 30
0.0
 11
5448.103551517344
 21
-20.92930187933498
 31
0.0
  0
LINE
  5
15D
330
7A
100
AcDbEntity
  8
0
  6
Continuous
 62
     7
100
AcDbLine
 10
5444.966966448526
 20
-20.46252602661368
 30
0.0
 11
5444.966966448526
 21
-20.87175507736318
 31
0.0
  0
LINE
  5
15E
330
7A
100
AcDbEntity
  8
0
  6
Continuous
 62
     7
100
AcDbLine
 10
5446.90542471959
 20
-19.14340147363517
 30
0.0
 11
5444.966966448526
 21
-20.46252602661368
 31
0.0
  0
LINE
  5
15F
330
7A
100
AcDbEntity
  8
0
  6
Continuous
 62
     7
100
AcDbLine
 10
5445.024658737702
 20
-19.14340147363518
 30
0.0
 11
5446.90542471959
 21
-19.14340147363517
 31
0.0
  0
LINE
  5
160
330
7A
100
AcDbEntity
  8
0
  6
Continuous
 62
     7
100
AcDbLine
 10
5444.966966448526
 20
-18.81259533197278
 30
0.0
 11
5444.966966448526
 21
-19.08570918446008
 31
0.0
  0
LINE
  5
161
330
7A
100
AcDbEntity
  8
0
  6
Continuous
 62
     7
100
AcDbLine
 10
5442.073093713192
 20
-19.59779507483849
 30
0.0
 11
5442.073093713192
 21
-19.19974469965219
 31
0.0
  0
LINE
  5
162
330
7A
100
AcDbEntity
  8
0
  6
Continuous
 62
     7
100
AcDbLine
 10
5444.445408050698
 20
-19.65413830085549
 30
0.0
 11
5442.130799228477
 21
-19.65413830085549
 31
0.0
  0
LINE
  5
163
330
7A
100
AcDbEntity
  8
0
  6
Continuous
 62
     7
100
AcDbLine
 10
5444.445408050698
 20
-19.99716006110568
 30
0.0
 11
5444.445408050698
 21
-19.65413830085549
 31
0.0
  0
LINE
  5
164
330
7A
100
AcDbEntity
  8
0
  6
Continuous
 62
     7
100
AcDbLine
 10
5442.130799228477
 20
-19.99716006110568
 30
0.0
 11
5444.445408050698
 21
-19.99716006110568
 31
0.0
  0
LINE
  5
165
330
7A
100
AcDbEntity
  8
0
  6
Continuous
 62
     7
100
AcDbLine
 10
5444.445408050698
 20
-20.51252602661369
 30
0.0
 11
5442.130799228477
 21
-20.51252602661369
 31
0.0
  0
LINE
  5
166
330
7A
100
AcDbEntity
  8
0
  6
Continuous
 62
     7
100
AcDbLine
 10
5444.445408050698
 20
-20.92866702608408
 30
0.0
 11
5444.445408050698
 21
-20.51252602661369
 31
0.0
  0
LINE
  5
167
330
7A
100
AcDbEntity
  8
0
  6
Continuous
 62
     7
100
AcDbLine
 10
5441.36618461832
 20
-20.92866702608408
 30
0.0
 11
5444.445408050698
 21
-20.92866702608408
 31
0.0
  0
LINE
  5
168
330
7A
100
AcDbEntity
  8
0
  6
Continuous
 62
     7
100
AcDbLine
 10
5441.228500819532
 20
-18.89258684158569
 30
0.0
 11
5441.228500819532
 21
-20.79098322729599
 31
0.0
  0
LINE
  5
169
330
7A
100
AcDbEntity
  8
0
  6
Continuous
 62
     7
100
AcDbLine
 10
5444.445408050698
 20
-18.75490304279757
 30
0.0
 11
5441.36618461832
 21
-18.75490304279757
 31
0.0
  0
LINE
  5
16A
330
7A
100
AcDbEntity
  8
0
  6
Continuous
 62
     7
100
AcDbLine
 10
5444.445408050698
 20
-19.14340147363517
 30
0.0
 11
5444.445408050698
 21
-18.75490304279757
 31
0.0
  0
LINE
  5
16B
330
7A
100
AcDbEntity
  8
0
  6
Continuous
 62
     7
100
AcDbLine
 10
5442.130799228477
 20
-19.14340147363517
 30
0.0
 11
5444.445408050698
 21
-19.14340147363517
 31
0.0
  0
LINE
  5
16C
330
7A
100
AcDbEntity
  8
0
  6
Continuous
 62
     7
100
AcDbLine
 10
5439.112944943688
 20
-19.70413830085548
 30
0.0
 11
5439.112944943688
 21
-20.04716006110569
 31
0.0
  0
LINE
  5
16D
330
7A
100
AcDbEntity
  8
0
  6
Continuous
 62
     7
100
AcDbLine
 10
5440.719083990125
 20
-19.70413830085547
 30
0.0
 11
5439.112944943688
 21
-19.70413830085548
 31
0.0
  0
LINE
  5
16E
330
7A
100
AcDbEntity
  8
0
  6
Continuous
 62
     7
100
AcDbLine
 10
5440.719083990125
 20
-20.46383541144369
 30
0.0
 11
5440.719083990125
 21
-19.70413830085547
 31
0.0
  0
LINE
  5
16F
330
7A
100
AcDbEntity
  8
0
  6
Continuous
 62
     7
100
AcDbLine
 10
5440.110682958018
 20
-18.75490304279757
 30
0.0
 11
5438.133644125851
 21
-18.75490304279757
 31
0.0
  0
LINE
  5
170
330
7A
100
AcDbEntity
  8
0
  6
Continuous
 62
     7
100
AcDbLine
 10
5440.719083990125
 20
-19.41209519245947
 30
0.0
 11
5440.719083990125
 21
-19.22437702183519
 31
0.0
  0
LINE
  5
171
330
7A
100
AcDbEntity
  8
0
  6
Continuous
 62
     7
100
AcDbLine
 10
5439.925213225989
 20
-19.41209519245947
 30
0.0
 11
5440.719083990125
 21
-19.41209519245947
 31
0.0
  0
LINE
  5
172
330
7A
100
AcDbEntity
  8
0
  6
Continuous
 62
     7
100
AcDbLine
 10
5439.925213225989
 20
-19.33205077840899
 30
0.0
 11
5439.925213225989
 21
-19.41209519245947
 31
0.0
  0
LINE
  5
173
330
7A
100
AcDbEntity
  8
0
  6
Continuous
 62
     7
100
AcDbLine
 10
5439.112944943688
 20
-20.04716006110569
 30
0.0
 11
5439.866581883047
 21
-20.04716006110569
 31
0.0
  0
LINE
  5
174
330
7A
100
AcDbEntity
  8
0
  6
Continuous
 62
     7
100
AcDbLine
 10
5436.69772510731
 20
-18.53140824626348
 30
0.0
 11
5436.69772510731
 21
-21.15680418701537
 31
0.0
  0
LINE
  5
175
330
7A
100
AcDbEntity
  8
0
  6
Continuous
 62
     7
100
AcDbLine
 10
5452.548926241211
 20
-18.39488834510198
 30
0.0
 11
5436.834245008471
 21
-18.39488834510197
 31
0.0
  0
LINE
  5
176
330
7A
100
AcDbEntity
  8
0
  6
Continuous
 62
     7
100
AcDbLine
 10
5452.685446142372
 20
-21.15680418701538
 30
0.0
 11
5452.685446142372
 21
-18.53140824626349
 31
0.0
  0
LINE
  5
177
330
7A
100
AcDbEntity
  8
0
  6
Continuous
 62
     7
100
AcDbLine
 10
5435.839284477113
 20
-21.24713851417417
 30
0.0
 11
5435.839284477113
 21
-18.44107391910467
 31
0.0
  0
LINE
  5
178
330
7A
100
AcDbEntity
  8
0
  6
Continuous
 62
     7
100
AcDbLine
 10
5452.934652495568
 20
-21.71792187804167
 30
0.0
 11
5436.448518754114
 21
-21.71792187804167
 31
0.0
  0
LINE
  5
179
330
7A
100
AcDbEntity
  8
0
  6
Continuous
 62
     7
100
AcDbLine
 10
5453.543886772568
 20
-18.44107391910467
 30
0.0
 11
5453.543886772568
 21
-21.24713851417417
 31
0.0
  0
LINE
  5
17A
330
7A
100
AcDbEntity
  8
0
  6
Continuous
 62
     7
100
AcDbLine
 10
5436.448518754114
 20
-17.97029055523718
 30
0.0
 11
5452.934652495568
 21
-17.97029055523718
 31
0.0
  0
LINE
  5
17B
330
7A
100
AcDbEntity
  8
0
  6
Continuous
 62
     7
100
AcDbLine
 10
5452.548926241211
 20
-21.29332408817678
 30
0.0
 11
5436.834245008471
 21
-21.29332408817678
 31
0.0
  0
LINE
  5
17C
330
7A
100
AcDbEntity
  8
0
  6
Continuous
 62
     7
100
AcDbLine
 10
5438.511580201775
 20
-19.19464472791817
 30
0.0
 11
5439.78690780006
 21
-19.19464472791817
 31
0.0
  0
LINE
  5
17D
330
7A
100
AcDbEntity
  8
0
  6
Continuous
 62
     7
100
AcDbLine
 10
5438.511580201775
 20
-20.45395413766557
 30
0.0
 11
5439.789923353003
 21
-20.45395413766557
 31
0.0
  0
LINE
  5
17E
330
7A
100
AcDbEntity
  8
0
  6
Continuous
 62
     7
100
AcDbLine
 10
5438.369373073575
 20
-19.3326327272223
 30
0.0
 11
5438.369373073575
 21
-20.3159661383615
 31
0.0
  0
LINE
  5
17F
330
7A
100
AcDbEntity
  8
0
  6
Continuous
 62
     7
100
AcDbLine
 10
5437.525243093744
 20
-19.22437702183519
 30
0.0
 11
5437.525243093744
 21
-20.46383541144369
 31
0.0
  0
LINE
  5
180
330
7A
100
AcDbEntity
  8
0
  6
Continuous
 62
     7
100
AcDbLine
 10
5438.133644125851
 20
-20.93330939048128
 30
0.0
 11
5440.110682958018
 21
-20.93330939048128
 31
0.0
  0
LINE
  5
181
330
7A
100
AcDbEntity
  8
0
  6
Continuous
 62
     7
100
AcDbLine
 10
5442.073093713192
 20
-20.45618280059678
 30
0.0
 11
5442.073093713192
 21
-20.05350328712267
 31
0.0
  0
LINE
  5
182
330
7A
100
AcDbEntity
  8
0
  6
Continuous
 62
     7
100
AcDbLine
 10
5449.485600592326
 20
-19.59779507483849
 30
0.0
 11
5449.485600592326
 21
-19.19974469965219
 31
0.0
  0
LINE
  5
183
330
7A
100
AcDbEntity
  8
0
  6
Continuous
 62
     7
100
AcDbLine
 10
5451.857914929829
 20
-19.65413830085549
 30
0.0
 11
5449.54330610761
 21
-19.65413830085549
 31
0.0
  0
LINE
  5
184
330
7A
100
AcDbEntity
  8
0
  6
Continuous
 62
     7
100
AcDbLine
 10
5451.857914929829
 20
-19.99716006110568
 30
0.0
 11
5451.857914929829
 21
-19.65413830085549
 31
0.0
  0
LINE
  5
185
330
7A
100
AcDbEntity
  8
0
  6
Continuous
 62
     7
100
AcDbLine
 10
5449.54330610761
 20
-19.99716006110568
 30
0.0
 11
5451.857914929829
 21
-19.99716006110568
 31
0.0
  0
LINE
  5
186
330
7A
100
AcDbEntity
  8
0
  6
Continuous
 62
     7
100
AcDbLine
 10
5451.857914929829
 20
-20.51252602661369
 30
0.0
 11
5449.54330610761
 21
-20.51252602661369
 31
0.0
  0
LINE
  5
187
330
7A
100
AcDbEntity
  8
0
  6
Continuous
 62
     7
100
AcDbLine
 10
5451.857914929829
 20
-20.92866702608408
 30
0.0
 11
5451.857914929829
 21
-20.51252602661369
 31
0.0
  0
LINE
  5
188
330
7A
100
AcDbEntity
  8
0
  6
Continuous
 62
     7
100
AcDbLine
 10
5448.778691497453
 20
-20.92866702608408
 30
0.0
 11
5451.857914929829
 21
-20.92866702608408
 31
0.0
  0
LINE
  5
189
330
7A
100
AcDbEntity
  8
0
  6
Continuous
 62
     7
100
AcDbLine
 10
5448.641007698664
 20
-18.89258684158569
 30
0.0
 11
5448.641007698664
 21
-20.79098322729599
 31
0.0
  0
LINE
  5
18A
330
7A
100
AcDbEntity
  8
0
  6
Continuous
 62
     7
100
AcDbLine
 10
5451.857914929829
 20
-18.75490304279759
 30
0.0
 11
5448.778691497453
 21
-18.75490304279757
 31
0.0
  0
LINE
  5
18B
330
7A
100
AcDbEntity
  8
0
  6
Continuous
 62
     7
100
AcDbLine
 10
5451.857914929829
 20
-19.14340147363519
 30
0.0
 11
5451.857914929829
 21
-18.75490304279759
 31
0.0
  0
LINE
  5
18C
330
7A
100
AcDbEntity
  8
0
  6
Continuous
 62
     7
100
AcDbLine
 10
5449.54330610761
 20
-19.14340147363519
 30
0.0
 11
5451.857914929829
 21
-19.14340147363519
 31
0.0
  0
LINE
  5
18D
330
7A
100
AcDbEntity
  8
0
  6
Continuous
 62
     7
100
AcDbLine
 10
5449.485600592326
 20
-20.45618280059678
 30
0.0
 11
5449.485600592326
 21
-20.05350328712267
 31
0.0
  0
LINE
  5
18E
330
7A
100
AcDbEntity
  8
0
  6
Continuous
 62
     7
100
AcDbLine
 10
5448.16124380652
 20
-19.19311017136318
 30
0.0
 11
5448.16124380652
 21
-18.89409461805648
 31
0.0
  0
LINE
  5
18F
330
7A
100
AcDbEntity
  8
0
  6
Continuous
 62
     1
100
AcDbLine
 10
5565.866049700291
 20
-45.97611015248318
 30
0.0
 11
5510.866049700291
 21
-45.97611015248318
 31
0.0
  0
LINE
  5
190
330
7A
100
AcDbEntity
  8
0
  6
Continuous
 62
     3
100
AcDbLine
 10
5433.866049700291
 20
-52.47611015248318
 30
0.0
 11
5483.866049700291
 21
-52.47611015248318
 31
0.0
  0
LINE
  5
191
330
7A
100
AcDbEntity
  8
0
  6
Continuous
 62
     1
100
AcDbLine
 10
5386.866049700291
 20
-15.97611015248318
 30
0.0
 11
5565.866049700291
 21
-15.97611015248318
 31
0.0
  0
LINE
  5
192
330
7A
100
AcDbEntity
  8
0
  6
Continuous
 62
     1
100
AcDbLine
 10
5510.866049700291
 20
-46.00944357248317
 30
0.0
 11
5483.866049700291
 21
-46.00944357248317
 31
0.0
  0
LINE
  5
193
330
7A
100
AcDbEntity
  8
0
  6
Continuous
 62
     3
100
AcDbLine
 10
5474.866049700291
 20
-45.97611015248319
 30
0.0
 11
5474.866049700291
 21
-32.97611015248318
 31
0.0
  0
LINE
  5
194
330
7A
100
AcDbEntity
  8
0
  6
Continuous
 62
     3
100
AcDbLine
 10
5461.838971717884
 20
-45.97611015248317
 30
0.0
 11
5461.838971717884
 21
-32.97611015248318
 31
0.0
  0
LINE
  5
195
330
7A
100
AcDbEntity
  8
0
  6
Continuous
 62
     3
100
AcDbLine
 10
5433.866049700291
 20
-37.37611015248319
 30
0.0
 11
5483.866049700291
 21
-37.37611015248319
 31
0.0
  0
LINE
  5
196
330
7A
100
AcDbEntity
  8
0
  6
Continuous
 62
     3
100
AcDbLine
 10
5483.866049700291
 20
-41.67611015248317
 30
0.0
 11
5433.866049700291
 21
-41.67611015248317
 31
0.0
  0
LINE
  5
197
330
7A
100
AcDbEntity
  8
0
  6
Continuous
 62
     3
100
AcDbLine
 10
5419.866049700291
 20
-58.97611015248318
 30
0.0
 11
5419.866049700291
 21
-15.97611015248317
 31
0.0
  0
LINE
  5
198
330
7A
100
AcDbEntity
  8
0
  6
Continuous
 62
     3
100
AcDbLine
 10
5411.866049700291
 20
-58.97611015248318
 30
0.0
 11
5411.866049700291
 21
-15.97611015248317
 31
0.0
  0
LINE
  5
199
330
7A
100
AcDbEntity
  8
0
  6
Continuous
 62
     3
100
AcDbLine
 10
5399.866049700291
 20
-58.97611015248318
 30
0.0
 11
5399.866049700291
 21
-15.97611015248317
 31
0.0
  0
LINE
  5
19A
330
7A
100
AcDbEntity
  8
0
  6
Continuous
 62
     3
100
AcDbLine
 10
5386.866049700291
 20
-20.27611315248318
 30
0.0
 11
5433.866049700291
 21
-20.27611315248318
 31
0.0
  0
LINE
  5
19B
330
7A
100
AcDbEntity
  8
0
  6
Continuous
 62
     3
100
AcDbLine
 10
5433.866049700291
 20
-24.57611615248319
 30
0.0
 11
5386.866049700291
 21
-24.57611615248319
 31
0.0
  0
LINE
  5
19C
330
7A
100
AcDbEntity
  8
0
  6
Continuous
 62
     3
100
AcDbLine
 10
5386.866049700291
 20
-28.87611915248318
 30
0.0
 11
5433.866049700291
 21
-28.87611915248319
 31
0.0
  0
LINE
  5
19D
330
7A
100
AcDbEntity
  8
0
  6
Continuous
 62
     3
100
AcDbLine
 10
5433.866049700291
 20
-33.17612215248319
 30
0.0
 11
5386.866049700291
 21
-33.17612215248319
 31
0.0
  0
LINE
  5
19E
330
7A
100
AcDbEntity
  8
0
  6
Continuous
 62
     3
100
AcDbLine
 10
5386.866049700291
 20
-37.47611015248318
 30
0.0
 11
5433.866049700291
 21
-37.47611015248318
 31
0.0
  0
LINE
  5
19F
330
7A
100
AcDbEntity
  8
0
  6
Continuous
 62
     3
100
AcDbLine
 10
5433.866049700291
 20
-41.77611315248318
 30
0.0
 11
5386.866049700291
 21
-41.77611315248318
 31
0.0
  0
LINE
  5
1A0
330
7A
100
AcDbEntity
  8
0
  6
Continuous
 62
     3
100
AcDbLine
 10
5386.866049700291
 20
-46.07611615248318
 30
0.0
 11
5433.866049700291
 21
-46.07611615248319
 31
0.0
  0
LINE
  5
1A1
330
7A
100
AcDbEntity
  8
0
  6
Continuous
 62
     3
100
AcDbLine
 10
5433.866049700291
 20
-50.37611915248319
 30
0.0
 11
5386.866049700291
 21
-50.37611915248319
 31
0.0
  0
LINE
  5
1A2
330
7A
100
AcDbEntity
  8
0
  6
Continuous
 62
     4
100
AcDbLine
 10
5386.866049700291
 20
-54.67610715248316
 30
0.0
 11
5433.866049700291
 21
-54.67610715248316
 31
0.0
  0
LINE
  5
1A3
330
7A
100
AcDbEntity
  8
0
  6
Continuous
 62
     1
100
AcDbLine
 10
5433.866049700291
 20
-15.97611015248317
 30
0.0
 11
5433.866049700291
 21
-58.97611015248318
 31
0.0
  0
LINE
  5
1A4
330
7A
100
AcDbEntity
  8
0
  6
Continuous
 62
     1
100
AcDbLine
 10
5510.866049700291
 20
-58.97611015248318
 30
0.0
 11
5510.866049700291
 21
-32.97611015248318
 31
0.0
  0
LINE
  5
1A5
330
7A
100
AcDbEntity
  8
1
  6
Continuous
 62
     4
100
AcDbLine
 10
5488.899350772379
 20
-55.22611015248318
 30
0.0
 11
5495.899350772379
 21
-54.22611015248318
 31
0.0
  0
LINE
  5
1A6
330
7A
100
AcDbEntity
  8
1
  6
Continuous
 62
     4
100
AcDbLine
 10
5495.899350772379
 20
-54.22611015248318
 30
0.0
 11
5495.899350772379
 21
-58.22611015248318
 31
0.0
  0
LINE
  5
1A7
330
7A
100
AcDbEntity
  8
1
  6
Continuous
 62
     4
100
AcDbLine
 10
5495.899350772379
 20
-58.22611015248318
 30
0.0
 11
5488.899350772379
 21
-57.22611015248318
 31
0.0
  0
LINE
  5
1A8
330
7A
100
AcDbEntity
  8
1
  6
Continuous
 62
     4
100
AcDbLine
 10
5488.899350772379
 20
-57.22611015248318
 30
0.0
 11
5488.899350772379
 21
-55.22611015248318
 31
0.0
  0
LINE
  5
1A9
330
7A
100
AcDbEntity
  8
1
  6
DOT_CENTER
 62
     7
100
AcDbLine
 10
5488.186508666673
 20
-56.22611015248318
 30
0.0
 11
5496.5841598356
 21
-56.22611015248318
 31
0.0
  0
LINE
  5
1AA
330
7A
100
AcDbEntity
  8
1
  6
DOT_CENTER
 62
     7
100
AcDbLine
 10
5500.292213598504
 20
-56.22611015248318
 30
0.0
 11
5505.445317724891
 21
-56.22611015248318
 31
0.0
  0
LINE
  5
1AB
330
7A
100
AcDbEntity
  8
1
  6
DOT_CENTER
 62
     7
100
AcDbLine
 10
5502.800602908702
 20
-58.64861263937333
 30
0.0
 11
5502.800602908702
 21
-53.76815952496445
 31
0.0
  0
LINE
  5
1AC
330
7A
100
AcDbEntity
  8
0
  6
Continuous
 62
     1
100
AcDbLine
 10
5433.866049700291
 20
-32.97611015248318
 30
0.0
 11
5565.866049700291
 21
-32.97611015248318
 31
0.0
  0
LINE
  5
1AD
330
7A
100
AcDbEntity
  8
1
  6
Continuous
 62
     1
100
AcDbLine
 10
5474.866049700291
 20
-32.97611015248318
 30
0.0
 11
5474.866049700291
 21
-15.97611015248318
 31
0.0
  0
ARC
  5
1AE
330
7A
100
AcDbEntity
  8
0
  6
Continuous
 62
     7
100
AcDbCircle
 10
5436.834245008471
 20
-18.53140824626349
 30
0.0
 40
0.1365199011615204
100
AcDbArc
 50
90.0
 51
179.999999999997
  0
ARC
  5
1AF
330
7A
100
AcDbEntity
  8
0
  6
Continuous
 62
     7
100
AcDbCircle
 10
5436.834245008471
 20
-21.15680418701537
 30
0.0
 40
0.1365199011606819
100
AcDbArc
 50
180.0
 51
270.0
  0
ARC
  5
1B0
330
7A
100
AcDbEntity
  8
0
  6
Continuous
 62
     7
100
AcDbCircle
 10
5452.548926241211
 20
-18.53140824626347
 30
0.0
 40
0.1365199011606819
100
AcDbArc
 50
359.9999999999926
 51
90.0
  0
ARC
  5
1B1
330
7A
100
AcDbEntity
  8
0
  6
Continuous
 62
     7
100
AcDbCircle
 10
5452.548926241211
 20
-21.15680418701537
 30
0.0
 40
0.1365199011614102
100
AcDbArc
 50
270.0
 51
359.999999999997
  0
ARC
  5
1B2
330
7A
100
AcDbEntity
  8
0
  6
Continuous
 62
     7
100
AcDbCircle
 10
5439.866581883047
 20
-20.10664025140718
 30
0.0
 40
0.0594801903021655
100
AcDbArc
 50
1.31237392904931
 51
90.0
  0
ARC
  5
1B3
330
7A
100
AcDbEntity
  8
0
  6
Continuous
 62
     7
100
AcDbCircle
 10
5442.129992716004
 20
-19.59724232923849
 30
0.0
 40
0.0569016875736931
100
AcDbArc
 50
180.5565825808265
 51
270.8121254424325
  0
ARC
  5
1B4
330
7A
100
AcDbEntity
  8
0
  6
Continuous
 62
     7
100
AcDbCircle
 10
5442.129992716004
 20
-19.20029744525208
 30
0.0
 40
0.056901687572526
100
AcDbArc
 50
89.18787455756619
 51
179.4434174192844
  0
ARC
  5
1B5
330
7A
100
AcDbEntity
  8
0
  6
Continuous
 62
     7
100
AcDbCircle
 10
5442.129992716004
 20
-20.05405603272256
 30
0.0
 40
0.0569016875724941
100
AcDbArc
 50
89.18787455756575
 51
179.4434174192844
  0
ARC
  5
1B6
330
7A
100
AcDbEntity
  8
0
  6
Continuous
 62
     7
100
AcDbCircle
 10
5442.129992716004
 20
-20.45563005499678
 30
0.0
 40
0.0569016875736931
100
AcDbArc
 50
180.5565825808229
 51
270.8121254424339
  0
ARC
  5
1B7
330
7A
100
AcDbEntity
  8
0
  6
Continuous
 62
     7
100
AcDbCircle
 10
5449.542499595136
 20
-19.59724232923849
 30
0.0
 40
0.0569016875718742
100
AcDbArc
 50
180.5565825808443
 51
270.8121254433482
  0
ARC
  5
1B8
330
7A
100
AcDbEntity
  8
0
  6
Continuous
 62
     7
100
AcDbCircle
 10
5449.542499595136
 20
-19.20029744525208
 30
0.0
 40
0.0569016875725176
100
AcDbArc
 50
89.18787455665019
 51
179.4434174192666
  0
ARC
  5
1B9
330
7A
100
AcDbEntity
  8
0
  6
Continuous
 62
     7
100
AcDbCircle
 10
5449.542499595136
 20
-20.05405603272256
 30
0.0
 40
0.056901687572507
100
AcDbArc
 50
89.18787455665004
 51
179.4434174192666
  0
ARC
  5
1BA
330
7A
100
AcDbEntity
  8
0
  6
Continuous
 62
     7
100
AcDbCircle
 10
5449.542499595136
 20
-20.45563005499678
 30
0.0
 40
0.0569016875718742
100
AcDbArc
 50
180.5565825808407
 51
270.8121254433495
  0
ARC
  5
1BB
330
7A
100
AcDbEntity
  8
0
  6
Continuous
 62
     7
100
AcDbCircle
 10
5445.024658737702
 20
-18.81259533197279
 30
0.0
 40
0.0576922891752005
100
AcDbArc
 50
90.0
 51
179.9999999999894
  0
ARC
  5
1BC
330
7A
100
AcDbEntity
  8
0
  6
Continuous
 62
     7
100
AcDbCircle
 10
5445.024658737702
 20
-19.08570918446008
 30
0.0
 40
0.057692289175975
100
AcDbArc
 50
180.0
 51
270.0
  0
ARC
  5
1BD
330
7A
100
AcDbEntity
  8
0
  6
Continuous
 62
     7
100
AcDbCircle
 10
5445.024585994101
 20
-20.87168233376146
 30
0.0
 40
0.0576195914929001
100
AcDbArc
 50
180.0723348146754
 51
270.0723348147328
  0
ARC
  5
1BE
330
7A
100
AcDbEntity
  8
0
  6
Continuous
 62
     7
100
AcDbCircle
 10
5448.103624260945
 20
-20.87168233376146
 30
0.0
 40
0.0576195914922205
100
AcDbArc
 50
269.9276651861716
 51
359.9276651853257
  0
ARC
  5
1BF
330
7A
100
AcDbEntity
  8
0
  6
Continuous
 62
     7
100
AcDbCircle
 10
5448.103624260945
 20
-20.57014557218726
 30
0.0
 40
0.0576195914938096
100
AcDbArc
 50
0.07233481464603
 51
90.07233481382835
  0
CIRCLE
  5
1C0
330
7A
100
AcDbEntity
  8
1
  6
Continuous
 62
     4
100
AcDbCircle
 10
5502.800602908702
 20
-56.22611015248318
 30
0.0
 40
1.0
  0
CIRCLE
  5
1C1
330
7A
100
AcDbEntity
  8
1
  6
Continuous
 62
     4
100
AcDbCircle
 10
5502.800602908702
 20
-56.22611015248318
 30
0.0
 40
2.0
  0
SPLINE
  5
1C2
330
7A
100
AcDbEntity
  8
0
  6
Continuous
 62
     7
100
AcDbSpline
210
0.0
220
0.0
230
1.0
 70
     8
 71
     3
 72
    13
 73
     9
 74
     7
 42
0.000000001
 43
0.0000000001
 44
0.00000001
 40
0.0
 40
0.0
 40
0.0
 40
0.0
 40
0.1601947125890148
 40
0.3210951636661218
 40
0.4607710770953275
 40
0.6002079291533283
 40
0.724415658046807
 40
0.8468165924376928
 40
0.8468165924376928
 40
0.8468165924376928
 40
0.8468165924376928
 10
5436.448518754114
 20
-17.97029055523718
 30
0.0
 10
5436.39501451391
 20
-17.97353152143299
 30
0.0
 10
5436.287770321904
 20
-17.98002774624572
 30
0.0
 10
5436.140872423617
 20
-18.03082315899276
 30
0.0
 10
5436.013912463182
 20
-18.10658312234408
 30
0.0
 10
5435.919043348276
 20
-18.20356385110179
 30
0.0
 10
5435.853608119329
 20
-18.31777065114072
 30
0.0
 10
5435.844035642175
 20
-18.40017407359387
 30
0.0
 10
5435.839284477113
 20
-18.44107391910467
 30
0.0
 11
5436.448518754114
 21
-17.97029055523718
 31
0.0
 11
5436.289219735636
 21
-17.98720705990505
 31
0.0
 11
5436.136713225158
 21
-18.03849760138029
 31
0.0
 11
5436.017570189775
 21
-18.11139683588809
 31
0.0
 11
5435.920307623259
 21
-18.2113099467179
 31
0.0
 11
5435.86147735458
 21
-18.32070172194116
 31
0.0
 11
5435.839284477113
 21
-18.44107391910467
 31
0.0
  0
SPLINE
  5
1C3
330
7A
100
AcDbEntity
  8
0
  6
Continuous
 62
     7
100
AcDbSpline
210
0.0
220
0.0
230
1.0
 70
     8
 71
     3
 72
    13
 73
     9
 74
     7
 42
0.000000001
 43
0.0000000001
 44
0.00000001
 40
0.0
 40
0.0
 40
0.0
 40
0.0
 40
0.1601947125890137
 40
0.3210951636661241
 40
0.4607710770953483
 40
0.6002079291533695
 40
0.7244156580468576
 40
0.846816592437677
 40
0.846816592437677
 40
0.846816592437677
 40
0.846816592437677
 10
5436.448518754114
 20
-21.71792187804167
 30
0.0
 10
5436.395014513911
 20
-21.71468091184586
 30
0.0
 10
5436.287770321902
 20
-21.70818468703315
 30
0.0
 10
5436.140872423619
 20
-21.6573892742861
 30
0.0
 10
5436.013912463181
 20
-21.58162931093473
 30
0.0
 10
5435.919043348276
 20
-21.48464858217699
 30
0.0
 10
5435.853608119328
 20
-21.37044178213808
 30
0.0
 10
5435.844035642177
 20
-21.28803835968494
 30
0.0
 10
5435.839284477113
 20
-21.24713851417417
 30
0.0
 11
5436.448518754114
 21
-21.71792187804167
 31
0.0
 11
5436.289219735636
 21
-21.70100537337381
 31
0.0
 11
5436.136713225158
 21
-21.64971483189856
 31
0.0
 11
5436.017570189775
 21
-21.57681559739073
 31
0.0
 11
5435.920307623259
 21
-21.47690248656089
 31
0.0
 11
5435.86147735458
 21
-21.36751071133761
 31
0.0
 11
5435.839284477113
 21
-21.24713851417417
 31
0.0
  0
SPLINE
  5
1C4
330
7A
100
AcDbEntity
  8
0
  6
Continuous
 62
     7
100
AcDbSpline
210
0.0
220
0.0
230
1.0
 70
     8
 71
     3
 72
    13
 73
     9
 74
     7
 42
0.000000001
 43
0.0000000001
 44
0.00000001
 40
0.0
 40
0.0
 40
0.0
 40
0.0
 40
0.1601947125890137
 40
0.3210951636661241
 40
0.4607710770945725
 40
0.6002079291525937
 40
0.724415658045651
 40
0.8468165924366353
 40
0.8468165924366353
 40
0.8468165924366353
 40
0.8468165924366353
 10
5452.934652495568
 20
-21.71792187804167
 30
0.0
 10
5452.988156735772
 20
-21.71468091184585
 30
0.0
 10
5453.095400927781
 20
-21.7081846870331
 30
0.0
 10
5453.242298826062
 20
-21.65738927428638
 30
0.0
 10
5453.369258786503
 20
-21.58162931093437
 30
0.0
 10
5453.464127901402
 20
-21.4846485821773
 30
0.0
 10
5453.529563130352
 20
-21.37044178213771
 30
0.0
 10
5453.539135607505
 20
-21.28803835968489
 30
0.0
 10
5453.543886772568
 20
-21.24713851417417
 30
0.0
 11
5452.934652495568
 21
-21.71792187804167
 31
0.0
 11
5453.093951514046
 21
-21.70100537337381
 31
0.0
 11
5453.246458024524
 21
-21.64971483189856
 31
0.0
 11
5453.365601059906
 21
-21.57681559739073
 31
0.0
 11
5453.462863626422
 21
-21.47690248656089
 31
0.0
 11
5453.521693895101
 21
-21.36751071133761
 31
0.0
 11
5453.543886772568
 21
-21.24713851417417
 31
0.0
  0
SPLINE
  5
1C5
330
7A
100
AcDbEntity
  8
0
  6
Continuous
 62
     7
100
AcDbSpline
210
0.0
220
0.0
230
1.0
 70
     8
 71
     3
 72
    13
 73
     9
 74
     7
 42
0.000000001
 43
0.0000000001
 44
0.00000001
 40
0.0
 40
0.0
 40
0.0
 40
0.0
 40
0.1601947125890148
 40
0.3210951636661218
 40
0.4607710770945517
 40
0.6002079291525525
 40
0.7244156580456004
 40
0.8468165924366511
 40
0.8468165924366511
 40
0.8468165924366511
 40
0.8468165924366511
 10
5452.934652495568
 20
-17.97029055523718
 30
0.0
 10
5452.988156735772
 20
-17.97353152143301
 30
0.0
 10
5453.095400927779
 20
-17.98002774624577
 30
0.0
 10
5453.242298826063
 20
-18.03082315899246
 30
0.0
 10
5453.369258786501
 20
-18.10658312234445
 30
0.0
 10
5453.464127901405
 20
-18.20356385110148
 30
0.0
 10
5453.529563130351
 20
-18.31777065114108
 30
0.0
 10
5453.539135607504
 20
-18.40017407359393
 30
0.0
 10
5453.543886772568
 20
-18.44107391910467
 30
0.0
 11
5452.934652495568
 21
-17.97029055523718
 31
0.0
 11
5453.093951514046
 21
-17.98720705990505
 31
0.0
 11
5453.246458024524
 21
-18.03849760138029
 31
0.0
 11
5453.365601059906
 21
-18.11139683588809
 31
0.0
 11
5453.462863626422
 21
-18.2113099467179
 31
0.0
 11
5453.521693895101
 21
-18.32070172194116
 31
0.0
 11
5453.543886772568
 21
-18.44107391910467
 31
0.0
  0
SPLINE
  5
1C6
330
7A
100
AcDbEntity
  8
0
  6
Continuous
 62
     7
100
AcDbSpline
210
0.0
220
0.0
230
1.0
 70
     8
 71
     3
 72
    13
 73
     9
 74
     7
 42
0.000000001
 43
0.0000000001
 44
0.00000001
 40
0.0
 40
0.0
 40
0.0
 40
0.0
 40
0.1486424004239755
 40
0.2982382241035438
 40
0.4390496439037918
 40
0.5790300713324257
 40
0.714120142544459
 40
0.8476890257801514
 40
0.8476890257801514
 40
0.8476890257801514
 40
0.8476890257801514
 10
5438.133644125851
 20
-18.75490304279757
 30
0.0
 10
5438.084011339574
 20
-18.75775169019775
 30
0.0
 10
5437.984427413463
 20
-18.76346727118643
 30
0.0
 10
5437.843622784846
 20
-18.80796950392848
 30
0.0
 10
5437.715564107006
 20
-18.87489414540155
 30
0.0
 10
5437.612290140514
 20
-18.96962669590275
 30
0.0
 10
5437.540887581151
 20
-19.08994338555115
 30
0.0
 10
5437.530438196349
 20
-19.17973528065763
 30
0.0
 10
5437.525243093744
 20
-19.22437702183519
 30
0.0
 11
5438.133644125851
 21
-18.75490304279757
 31
0.0
 11
5437.985723977304
 21
-18.76953835689931
 31
0.0
 11
5437.842590362535
 21
-18.81303179358274
 31
0.0
 11
5437.718792290656
 21
-18.88012794802968
 31
0.0
 11
5437.616318083029
 21
-18.97548809526513
 31
0.0
 11
5437.549848894758
 21
-19.09309411306887
 31
0.0
 11
5437.525243093744
 21
-19.22437702183519
 31
0.0
  0
SPLINE
  5
1C7
330
7A
100
AcDbEntity
  8
0
  6
Continuous
 62
     7
100
AcDbSpline
210
0.0
220
0.0
230
1.0
 70
     8
 71
     3
 72
    13
 73
     9
 74
     7
 42
0.000000001
 43
0.0000000001
 44
0.00000001
 40
0.0
 40
0.0
 40
0.0
 40
0.0
 40
0.1486424004239755
 40
0.2982382241035438
 40
0.4390496439045913
 40
0.5790300713338911
 40
0.7141201425454768
 40
0.8476890257811692
 40
0.8476890257811692
 40
0.8476890257811692
 40
0.8476890257811692
 10
5440.110682958018
 20
-18.75490304279757
 30
0.0
 10
5440.160315744292
 20
-18.75775169019774
 30
0.0
 10
5440.259899670404
 20
-18.7634672711864
 30
0.0
 10
5440.400704299026
 20
-18.80796950392867
 30
0.0
 10
5440.528762976863
 20
-18.87489414540157
 30
0.0
 10
5440.632036943353
 20
-18.96962669590218
 30
0.0
 10
5440.703439502719
 20
-19.08994338555146
 30
0.0
 10
5440.713888887521
 20
-19.17973528065768
 30
0.0
 10
5440.719083990125
 20
-19.22437702183519
 30
0.0
 11
5440.110682958018
 21
-18.75490304279757
 31
0.0
 11
5440.258603106565
 21
-18.76953835689931
 31
0.0
 11
5440.401736721334
 21
-18.81303179358274
 31
0.0
 11
5440.525534793213
 21
-18.88012794802968
 31
0.0
 11
5440.628009000841
 21
-18.97548809526513
 31
0.0
 11
5440.694478189112
 21
-19.09309411306887
 31
0.0
 11
5440.719083990125
 21
-19.22437702183519
 31
0.0
  0
SPLINE
  5
1C8
330
7A
100
AcDbEntity
  8
0
  6
Continuous
 62
     7
100
AcDbSpline
210
0.0
220
0.0
230
1.0
 70
     8
 71
     3
 72
    13
 73
     9
 74
     7
 42
0.000000001
 43
0.0000000001
 44
0.00000001
 40
0.0
 40
0.0
 40
0.0
 40
0.0
 40
0.1486424004239748
 40
0.2982382241035442
 40
0.4390496439046035
 40
0.5790300713339129
 40
0.7141201425454833
 40
0.8476890257811303
 40
0.8476890257811303
 40
0.8476890257811303
 40
0.8476890257811303
 10
5440.110682958018
 20
-20.93330939048128
 30
0.0
 10
5440.160315744295
 20
-20.93046074308111
 30
0.0
 10
5440.259899670405
 20
-20.92474516209246
 30
0.0
 10
5440.400704299023
 20
-20.88024292935019
 30
0.0
 10
5440.528762976863
 20
-20.81331828787725
 30
0.0
 10
5440.632036943355
 20
-20.71858573737663
 30
0.0
 10
5440.703439502717
 20
-20.59826904772738
 30
0.0
 10
5440.713888887522
 20
-20.50847715262118
 30
0.0
 10
5440.719083990125
 20
-20.46383541144369
 30
0.0
 11
5440.110682958018
 21
-20.93330939048128
 31
0.0
 11
5440.258603106565
 21
-20.91867407637954
 31
0.0
 11
5440.401736721334
 21
-20.87518063969611
 31
0.0
 11
5440.525534793213
 21
-20.80808448524915
 31
0.0
 11
5440.628009000841
 21
-20.71272433801369
 31
0.0
 11
5440.694478189112
 21
-20.59511832020996
 31
0.0
 11
5440.719083990125
 21
-20.46383541144369
 31
0.0
  0
SPLINE
  5
1C9
330
7A
100
AcDbEntity
  8
0
  6
Continuous
 62
     7
100
AcDbSpline
210
0.0
220
0.0
230
1.0
 70
     8
 71
     3
 72
    13
 73
     9
 74
     7
 42
0.000000001
 43
0.0000000001
 44
0.00000001
 40
0.0
 40
0.0
 40
0.0
 40
0.0
 40
0.0328394639219053
 40
0.0655975961565343
 40
0.1022664387466349
 40
0.1389211524014541
 40
0.1782532702854259
 40
0.2177267563661565
 40
0.2177267563661565
 40
0.2177267563661565
 40
0.2177267563661565
 10
5438.511580201775
 20
-19.19464472791817
 30
0.0
 10
5438.500597310502
 20
-19.19550488270224
 30
0.0
 10
5438.478658730608
 20
-19.19722307631157
 30
0.0
 10
5438.446945662574
 20
-19.21098133753515
 30
0.0
 10
5438.4174261632
 20
-19.23075387725618
 30
0.0
 10
5438.391316691179
 20
-19.25815026046556
 30
0.0
 10
5438.372845800075
 20
-19.29302585794954
 30
0.0
 10
5438.370532027873
 20
-19.31941465722587
 30
0.0
 10
5438.369373073575
 20
-19.3326327272223
 30
0.0
 11
5438.511580201775
 21
-19.19464472791817
 31
0.0
 11
5438.479031669873
 21
-19.19900632544389
 31
0.0
 11
5438.448650373281
 21
-19.21125672131664
 31
0.0
 11
5438.418275084641
 21
-19.23179804667482
 31
0.0
 11
5438.393206522703
 21
-19.25854006239902
 31
0.0
 11
5438.375432492183
 21
-19.2936270906313
 31
0.0
 11
5438.369373073575
 21
-19.3326327272223
 31
0.0
  0
SPLINE
  5
1CA
330
7A
100
AcDbEntity
  8
0
  6
Continuous
 62
     7
100
AcDbSpline
210
0.0
220
0.0
230
1.0
 70
     8
 71
     3
 72
    13
 73
     9
 74
     7
 42
0.000000001
 43
0.0000000001
 44
0.00000001
 40
0.0
 40
0.0
 40
0.0
 40
0.0
 40
0.1486424004239748
 40
0.2982382241035442
 40
0.439049643903804
 40
0.5790300713324475
 40
0.7141201425444654
 40
0.8476890257801124
 40
0.8476890257801124
 40
0.8476890257801124
 40
0.8476890257801124
 10
5438.133644125851
 20
-20.93330939048128
 30
0.0
 10
5438.084011339575
 20
-20.9304607430811
 30
0.0
 10
5437.984427413465
 20
-20.92474516209244
 30
0.0
 10
5437.843622784843
 20
-20.88024292935037
 30
0.0
 10
5437.715564107005
 20
-20.81331828787728
 30
0.0
 10
5437.612290140514
 20
-20.71858573737607
 30
0.0
 10
5437.540887581153
 20
-20.59826904772769
 30
0.0
 10
5437.530438196349
 20
-20.50847715262123
 30
0.0
 10
5437.525243093744
 20
-20.46383541144369
 30
0.0
 11
5438.133644125851
 21
-20.93330939048128
 31
0.0
 11
5437.985723977304
 21
-20.91867407637954
 31
0.0
 11
5437.842590362535
 21
-20.87518063969611
 31
0.0
 11
5437.718792290656
 21
-20.80808448524915
 31
0.0
 11
5437.616318083029
 21
-20.71272433801369
 31
0.0
 11
5437.549848894758
 21
-20.59511832020996
 31
0.0
 11
5437.525243093744
 21
-20.46383541144369
 31
0.0
  0
SPLINE
  5
1CB
330
7A
100
AcDbEntity
  8
0
  6
Continuous
 62
     7
100
AcDbSpline
210
0.0
220
0.0
230
1.0
 70
     8
 71
     3
 72
    13
 73
     9
 74
     7
 42
0.000000001
 43
0.0000000001
 44
0.00000001
 40
0.0
 40
0.0
 40
0.0
 40
0.0
 40
0.0328394639219039
 40
0.0655975961565236
 40
0.1022664387466083
 40
0.1389211524014171
 40
0.1782532702854142
 40
0.2177267563661343
 40
0.2177267563661343
 40
0.2177267563661343
 40
0.2177267563661343
 10
5438.511580201775
 20
-20.45395413766557
 30
0.0
 10
5438.500597310502
 20
-20.4530939828815
 30
0.0
 10
5438.478658730609
 20
-20.45137578927218
 30
0.0
 10
5438.446945662572
 20
-20.43761752804862
 30
0.0
 10
5438.4174261632
 20
-20.41784498832762
 30
0.0
 10
5438.391316691179
 20
-20.39044860511826
 30
0.0
 10
5438.372845800073
 20
-20.35557300763426
 30
0.0
 10
5438.370532027875
 20
-20.32918420835792
 30
0.0
 10
5438.369373073575
 20
-20.3159661383615
 30
0.0
 11
5438.511580201775
 21
-20.45395413766557
 31
0.0
 11
5438.479031669873
 21
-20.44959254013986
 31
0.0
 11
5438.448650373281
 21
-20.43734214426713
 31
0.0
 11
5438.418275084641
 21
-20.41680081890899
 31
0.0
 11
5438.393206522703
 21
-20.3900588031848
 31
0.0
 11
5438.375432492183
 21
-20.35497177495249
 31
0.0
 11
5438.369373073575
 21
-20.3159661383615
 31
0.0
  0
SPLINE
  5
1CC
330
7A
100
AcDbEntity
  8
0
  6
Continuous
 62
     7
100
AcDbSpline
210
0.0
220
0.0
230
1.0
 70
     8
 71
     3
 72
    14
 73
    10
 74
     8
 42
0.000000001
 43
0.0000000001
 44
0.00000001
 40
0.0
 40
0.0
 40
0.0
 40
0.0
 40
0.0375510686551136
 40
0.0754042245940407
 40
0.1094159246314433
 40
0.143458064236933
 40
0.170966956682553
 40
0.2205583835065161
 40
0.3151355988232928
 40
0.3151355988232928
 40
0.3151355988232928
 40
0.3151355988232928
 10
5439.789923353003
 20
-20.45395413766557
 30
0.0
 10
5439.802474190634
 20
-20.45321218135505
 30
0.0
 10
5439.827676832187
 20
-20.45172228782357
 30
0.0
 10
5439.862245434502
 20
-20.43774692895335
 30
0.0
 10
5439.889741400327
 20
-20.4151213624507
 30
0.0
 10
5439.909319920118
 20
-20.38938729244541
 30
0.0
 10
5439.921664089718
 20
-20.35397620893542
 30
0.0
 10
5439.924824221281
 20
-20.29644431156962
 30
0.0
 10
5439.925562291387
 20
-20.2484778562691
 30
0.0
 10
5439.926046470881
 20
-20.21701100100359
 30
0.0
 11
5439.789923353003
 21
-20.45395413766557
 31
0.0
 11
5439.827233726091
 21
-20.44970922509954
 31
0.0
 11
5439.862336301931
 21
-20.4355433933896
 31
0.0
 11
5439.888802894113
 21
-20.41418185425378
 31
0.0
 11
5439.908892206998
 21
-20.38669937139878
 31
0.0
 11
5439.918302030945
 21
-20.36084991416121
 31
0.0
 11
5439.923769489027
 21
-20.31156080038988
 31
0.0
 11
5439.926046470881
 21
-20.21701100100359
 31
0.0
  0
SPLINE
  5
1CD
330
7A
100
AcDbEntity
  8
0
  6
Continuous
 62
     7
100
AcDbSpline
210
0.0
220
0.0
230
1.0
 70
     8
 71
     3
 72
    13
 73
     9
 74
     7
 42
0.000000001
 43
0.0000000001
 44
0.00000001
 40
0.0
 40
0.0
 40
0.0
 40
0.0
 40
0.0303249364044365
 40
0.0604417804406858
 40
0.0959479228021458
 40
0.1315593618834452
 40
0.1736623514489321
 40
0.2160932422793814
 40
0.2160932422793814
 40
0.2160932422793814
 40
0.2160932422793814
 10
5439.925213225989
 20
-19.33205077840899
 30
0.0
 10
5439.924540046901
 20
-19.32191159033421
 30
0.0
 10
5439.923198293883
 20
-19.30170279188325
 30
0.0
 10
5439.91149694008
 20
-19.27151207947367
 30
0.0
 10
5439.893470987428
 20
-19.2427575488536
 30
0.0
 10
5439.866366097537
 20
-19.21592410756988
 30
0.0
 10
5439.829405601119
 20
-19.19775067028279
 30
0.0
 10
5439.801110319589
 20
-19.19568271109458
 30
0.0
 10
5439.78690780006
 20
-19.19464472791817
 30
0.0
 11
5439.925213225989
 21
-19.33205077840899
 31
0.0
 11
5439.921675926818
 21
-19.30193285349095
 31
0.0
 11
5439.911378715564
 21
-19.27363105321715
 31
0.0
 11
5439.892402426848
 21
-19.24362127518372
 31
0.0
 11
5439.866806726907
 21
-19.21886173421796
 31
0.0
 11
5439.828938412463
 21
-19.2004592153057
 31
0.0
 11
5439.78690780006
 21
-19.19464472791817
 31
0.0
  0
SPLINE
  5
1CE
330
7A
100
AcDbEntity
  8
0
  6
Continuous
 62
     7
100
AcDbSpline
210
0.0
220
0.0
230
1.0
 70
     8
 71
     3
 72
    13
 73
     9
 74
     7
 42
0.000000001
 43
0.0000000001
 44
0.00000001
 40
0.0
 40
0.0
 40
0.0
 40
0.0
 40
0.0381152507058755
 40
0.0763355471206741
 40
0.1127548705349107
 40
0.1486421485068958
 40
0.1827728946268833
 40
0.2174479353557414
 40
0.2174479353557414
 40
0.2174479353557414
 40
0.2174479353557414
 10
5441.36618461832
 20
-18.75490304279757
 30
0.0
 10
5441.353432700395
 20
-18.75587121593086
 30
0.0
 10
5441.32789372219
 20
-18.75781024482328
 30
0.0
 10
5441.293018389573
 20
-18.77357127563645
 30
0.0
 10
5441.263468493386
 20
-18.79592990626577
 30
0.0
 10
5441.241164771853
 20
-18.82428831911156
 30
0.0
 10
5441.22986615343
 20
-18.85801862305529
 30
0.0
 10
5441.228958319918
 20
-18.88100349365531
 30
0.0
 10
5441.228500819532
 20
-18.89258684158569
 30
0.0
 11
5441.36618461832
 21
-18.75490304279757
 31
0.0
 11
5441.328409593711
 21
-18.75998437820609
 31
0.0
 11
5441.293282303343
 21
-18.77504640740417
 31
0.0
 11
5441.264386631286
 21
-18.79721411858675
 31
0.0
 11
5441.242665982692
 21
-18.82578176303826
 31
0.0
 11
5441.231528652472
 21
-18.85804424680345
 31
0.0
 11
5441.228500819532
 21
-18.89258684158569
 31
0.0
  0
SPLINE
  5
1CF
330
7A
100
AcDbEntity
  8
0
  6
Continuous
 62
     7
100
AcDbSpline
210
0.0
220
0.0
230
1.0
 70
     8
 71
     3
 72
    13
 73
     9
 74
     7
 42
0.000000001
 43
0.0000000001
 44
0.00000001
 40
0.0
 40
0.0
 40
0.0
 40
0.0
 40
0.0381152507058717
 40
0.0763355471206521
 40
0.1127548705348801
 40
0.1486421485068708
 40
0.1827728946269088
 40
0.2174479353557669
 40
0.2174479353557669
 40
0.2174479353557669
 40
0.2174479353557669
 10
5441.36618461832
 20
-20.92866702608408
 30
0.0
 10
5441.353432700397
 20
-20.92769885295081
 30
0.0
 10
5441.327893722189
 20
-20.92575982405839
 30
0.0
 10
5441.293018389575
 20
-20.90999879324529
 30
0.0
 10
5441.263468493387
 20
-20.88764016261597
 30
0.0
 10
5441.241164771851
 20
-20.85928174977017
 30
0.0
 10
5441.229866153429
 20
-20.8255514458264
 30
0.0
 10
5441.228958319918
 20
-20.80256657522637
 30
0.0
 10
5441.228500819532
 20
-20.79098322729599
 30
0.0
 11
5441.36618461832
 21
-20.92866702608408
 31
0.0
 11
5441.328409593711
 21
-20.92358569067559
 31
0.0
 11
5441.293282303343
 21
-20.90852366147756
 31
0.0
 11
5441.264386631286
 21
-20.88635595029498
 31
0.0
 11
5441.242665982692
 21
-20.85778830584347
 31
0.0
 11
5441.231528652472
 21
-20.82552582207823
 31
0.0
 11
5441.228500819532
 21
-20.79098322729599
 31
0.0
  0
SPLINE
  5
1D0
330
7A
100
AcDbEntity
  8
0
  6
Continuous
 62
     7
100
AcDbSpline
210
0.0
220
0.0
230
1.0
 70
     8
 71
     3
 72
    13
 73
     9
 74
     7
 42
0.000000001
 43
0.0000000001
 44
0.00000001
 40
0.0
 40
0.0
 40
0.0
 40
0.0
 40
0.0381152507058755
 40
0.07633554712151
 40
0.1127548705343034
 40
0.1486421485062884
 40
0.1827728946265728
 40
0.2174479353555103
 40
0.2174479353555103
 40
0.2174479353555103
 40
0.2174479353555103
 10
5448.778691497453
 20
-18.75490304279757
 30
0.0
 10
5448.765939579528
 20
-18.75587121593093
 30
0.0
 10
5448.740400601326
 20
-18.75781024482353
 30
0.0
 10
5448.705525268703
 20
-18.77357127563563
 30
0.0
 10
5448.675975372521
 20
-18.79592990626643
 30
0.0
 10
5448.653671650985
 20
-18.82428831911166
 30
0.0
 10
5448.642373032561
 20
-18.85801862305516
 30
0.0
 10
5448.64146519905
 20
-18.88100349365529
 30
0.0
 10
5448.641007698664
 20
-18.89258684158569
 30
0.0
 11
5448.778691497453
 21
-18.75490304279757
 31
0.0
 11
5448.740916472843
 21
-18.75998437820609
 31
0.0
 11
5448.705789182475
 21
-18.77504640740417
 31
0.0
 11
5448.67689351042
 21
-18.79721411858675
 31
0.0
 11
5448.655172861826
 21
-18.82578176303826
 31
0.0
 11
5448.644035531604
 21
-18.85804424680345
 31
0.0
 11
5448.641007698664
 21
-18.89258684158569
 31
0.0
  0
SPLINE
  5
1D1
330
7A
100
AcDbEntity
  8
0
  6
Continuous
 62
     7
100
AcDbSpline
210
0.0
220
0.0
230
1.0
 70
     8
 71
     3
 72
    13
 73
     9
 74
     7
 42
0.000000001
 43
0.0000000001
 44
0.00000001
 40
0.0
 40
0.0
 40
0.0
 40
0.0
 40
0.0381152507058717
 40
0.076335547121488
 40
0.1127548705342727
 40
0.1486421485062634
 40
0.1827728946265982
 40
0.2174479353555357
 40
0.2174479353555357
 40
0.2174479353555357
 40
0.2174479353555357
 10
5448.778691497453
 20
-20.92866702608408
 30
0.0
 10
5448.765939579529
 20
-20.92769885295073
 30
0.0
 10
5448.740400601322
 20
-20.92575982405815
 30
0.0
 10
5448.705525268709
 20
-20.90999879324611
 30
0.0
 10
5448.675975372519
 20
-20.8876401626153
 30
0.0
 10
5448.653671650985
 20
-20.85928174977007
 30
0.0
 10
5448.642373032562
 20
-20.82555144582653
 30
0.0
 10
5448.64146519905
 20
-20.80256657522639
 30
0.0
 10
5448.641007698664
 20
-20.79098322729599
 30
0.0
 11
5448.778691497453
 21
-20.92866702608408
 31
0.0
 11
5448.740916472843
 21
-20.92358569067559
 31
0.0
 11
5448.705789182475
 21
-20.90852366147756
 31
0.0
 11
5448.67689351042
 21
-20.88635595029498
 31
0.0
 11
5448.655172861826
 21
-20.85778830584347
 31
0.0
 11
5448.644035531604
 21
-20.82552582207823
 31
0.0
 11
5448.641007698664
 21
-20.79098322729599
 31
0.0
  0
SPLINE
  5
1D2
330
7A
100
AcDbEntity
  8
0
  6
Continuous
 62
     7
100
AcDbSpline
210
0.0
220
0.0
230
1.0
 70
     8
 71
     3
 72
    13
 73
     9
 74
     7
 42
0.000000001
 43
0.0000000001
 44
0.00000001
 40
0.0
 40
0.0
 40
0.0
 40
0.0
 40
0.0353323687869558
 40
0.0704203788314342
 40
0.1027083994749168
 40
0.1352293285021009
 40
0.1740111101521246
 40
0.2125287313232264
 40
0.2125287313232264
 40
0.2125287313232264
 40
0.2125287313232264
 10
5448.16124380652
 20
-18.89409461805648
 30
0.0
 10
5448.160357612411
 20
-18.88227271314969
 30
0.0
 10
5448.15859133881
 20
-18.85871066560062
 30
0.0
 10
5448.144135212688
 20
-18.82694418324678
 30
0.0
 10
5448.123447486285
 20
-18.80057277677158
 30
0.0
 10
5448.097189931182
 20
-18.77806384159158
 30
0.0
 10
5448.064896502705
 20
-18.75909566824844
 30
0.0
 10
5448.039011113016
 20
-18.75629739229422
 30
0.0
 10
5448.026112646843
 20
-18.75490304279757
 30
0.0
 11
5448.16124380652
 21
-18.89409461805648
 31
0.0
 11
5448.15653472798
 21
-18.8590774655707
 31
0.0
 11
5448.142528861727
 21
-18.8269059823367
 31
0.0
 11
5448.122749604808
 21
-18.80138545300748
 31
0.0
 11
5448.098174945765
 21
-18.78008528591587
 31
0.0
 11
5448.064024685951
 21
-18.76170631541903
 31
0.0
 11
5448.026112646843
 21
-18.75490304279757
 31
0.0
  0
MTEXT
  5
1D4
330
7A
100
AcDbEntity
  8
0
 62
     3
100
AcDbMText
 10
5435.595230149149
 20
-35.22611015248321
 30
0.0
 40
1.8
 41
0.0
 71
     4
 72
     1
  1
RoHS Compliant
  7
CONVERTER_12
 73
     1
 44
0.90036014405762
  0
MTEXT
  5
1D5
330
7A
100
AcDbEntity
  8
0
 62
     3
100
AcDbMText
 10
5434.595230149149
 20
-35.22611015248321
 30
0.0
 40
1.8
 41
0.0
 71
     4
 72
     1
  1
_____________
  7
CONVERTER_12
 73
     1
 44
0.90036014405762
  0
MTEXT
  5
1D6
330
7A
100
AcDbEntity
  8
0
 62
     4
100
AcDbMText
 10
5497.488765113971
 20
-50.77611015248316
 30
0.0
 40
3.5
 41
0.0
 71
     5
 72
     1
  1
D
  7
CONVERTER_11
 73
     1
 44
1.02040816326531
  0
MTEXT
  5
1D8
330
7A
100
AcDbEntity
  8
0
 62
     3
100
AcDbMText
 10
5434.595230149149
 20
-43.82611015248317
 30
0.0
 40
1.8
 41
0.0
 71
     4
 72
     1
  1
-
  7
CONVERTER_13
 73
     1
 44
0.90036014405762
  0
MTEXT
  5
1DA
330
7A
100
AcDbEntity
  8
0
 62
     3
100
AcDbMText
 10
5434.595230149149
 20
-39.52611015248319
 30
0.0
 40
1.8
 41
0.0
 71
     4
 72
     1
  1
erstellt / drawn
  7
CONVERTER_14
 73
     1
 44
0.90036014405762
  0
TEXT
  5
1DB
330
7A
100
AcDbEntity
  8
0
 62
     4
100
AcDbText
 10
5455.425663527492
 20
-19.52775967972868
 30
0.0
 40
2.2
  1
GEZE GmbH
 41
0.9
  7
CONVERTER_11
100
AcDbText
  0
MTEXT
  5
1DC
330
7A
100
AcDbEntity
  8
0
 62
     3
100
AcDbMText
 10
5455.425663527492
 20
-27.25923690850299
 30
0.0
 40
1.8
 41
0.0
 71
     7
 72
     1
  1
P.O. Box 13 63\P71226 Leonberg\PGermany
  7
CONVERTER_14
 73
     1
 44
0.78031212484994
  0
MTEXT
  5
1DD
330
7A
100
AcDbEntity
  8
0
 62
     3
100
AcDbMText
 10
5511.866049700291
 20
-38.07611015248317
 30
0.0
 40
1.8
 41
0.0
 71
     7
 72
     1
  1
Material-Nr.\PID-no.
  7
CONVERTER_14
 73
     1
 44
0.84033613445378
  0
TEXT
  5
1DE
330
7A
100
AcDbEntity
  8
0
 62
     3
100
AcDbText
 10
5511.866049700291
 20
-48.57611015248317
 30
0.0
 40
1.8
  1
Zeichnungs-Nr. / document-no.
 41
0.72
  7
CONVERTER_14
100
AcDbText
  0
TEXT
  5
1DF
330
7A
100
AcDbEntity
  8
0
 62
     3
100
AcDbText
 10
5485.066049700291
 20
-48.24277690298319
 30
0.0
 40
1.8
  1
Sprache / language
 41
0.72
  7
CONVERTER_14
100
AcDbText
  0
MTEXT
  5
1E0
330
7A
100
AcDbEntity
  8
0
 62
     3
100
AcDbMText
 10
5484.58095011951
 20
-44.61432190354949
 30
0.0
 40
1.8
 41
0.0
 71
     7
 72
     1
  1
Ma\U+00dfstab\Pscale
  7
CONVERTER_14
 73
     1
 44
0.84033613445378
  0
TEXT
  5
1E1
330
7A
100
AcDbEntity
  8
0
 62
     3
100
AcDbText
 10
5475.666006700291
 20
-18.37610415248317
 30
0.0
 40
1.8
  1
Benennung / designation
 41
0.72
  7
CONVERTER_14
100
AcDbText
  0
MTEXT
  5
1E2
330
7A
100
AcDbEntity
  8
0
 62
     3
100
AcDbMText
 10
5434.595230149149
 20
-55.72611015248318
 30
0.0
 40
1.8
 41
0.0
 71
     4
 72
     1
  1
Ersetzt durch:\Psubst. with:
  7
CONVERTER_14
 73
     1
 44
0.84033613445378
  0
MTEXT
  5
1E3
330
7A
100
AcDbEntity
  8
0
 62
     3
100
AcDbMText
 10
5434.595230149149
 20
-49.22611015248318
 30
0.0
 40
1.8
 41
0.0
 71
     4
 72
     1
  1
Ersatz f\U+00fcr:\Psubst. for:
  7
CONVERTER_14
 73
     1
 44
0.84033613445378
  0
MTEXT
  5
1E4
330
7A
100
AcDbEntity
  8
0
 62
     3
100
AcDbMText
 10
5484.679388518338
 20
-37.82179806159169
 30
0.0
 40
1.8
 41
0.0
 71
     7
 72
     1
  1
Blatt / von\Psheet / of
  7
CONVERTER_14
 73
     1
 44
0.84033613445378
  0
MTEXT
  5
1E6
330
7A
100
AcDbEntity
  8
0
 62
     3
100
AcDbMText
 10
5468.366049700291
 20
-36.27855413596699
 30
0.0
 40
1.8
 41
0.0
 71
     8
 72
     1
  1
Datum/date
  7
CONVERTER_15
 73
     1
 44
0.90036014405762
  0
MTEXT
  5
1E7
330
7A
100
AcDbEntity
  8
0
 62
     3
100
AcDbMText
 10
5479.366049700291
 20
-36.27855413596699
 30
0.0
 40
1.8
 41
0.0
 71
     8
 72
     1
  1
Name
  7
CONVERTER_15
 73
     1
 44
0.90036014405762
  0
MTEXT
  5
1E9
330
7A
100
AcDbEntity
  8
0
 62
     7
100
AcDbMText
 10
5396.066049700291
 20
-56.61568086043007
 30
0.0
 40
1.3
 41
0.0
 71
     8
 72
     1
  1
Dok.version
  7
CONVERTER_16
 73
     1
 44
0.7202881152461
  0
MTEXT
  5
1EA
330
7A
100
AcDbEntity
  8
0
 62
     7
100
AcDbMText
 10
5396.066049700291
 20
-58.41568086043008
 30
0.0
 40
1.3
 41
0.0
 71
     8
 72
     1
  1
doc.version
  7
CONVERTER_16
 73
     1
 44
0.7202881152461
  0
MTEXT
  5
1EB
330
7A
100
AcDbEntity
  8
0
 62
     7
100
AcDbMText
 10
5406.366049700291
 20
-58.41568086043008
 30
0.0
 40
1.3
 41
0.0
 71
     8
 72
     1
  1
date
  7
CONVERTER_14
 73
     1
 44
0.7202881152461
  0
MTEXT
  5
1EC
330
7A
100
AcDbEntity
  8
0
 62
     7
100
AcDbMText
 10
5406.366049700291
 20
-56.61568086043007
 30
0.0
 40
1.3
 41
0.0
 71
     8
 72
     1
  1
Datum
  7
CONVERTER_14
 73
     1
 44
0.7202881152461
  0
MTEXT
  5
1ED
330
7A
100
AcDbEntity
  8
0
 62
     7
100
AcDbMText
 10
5415.366049700291
 20
-58.41568086043008
 30
0.0
 40
1.3
 41
0.0
 71
     8
 72
     1
  1
name
  7
CONVERTER_14
 73
     1
 44
0.7202881152461
  0
MTEXT
  5
1EE
330
7A
100
AcDbEntity
  8
0
 62
     7
100
AcDbMText
 10
5415.366049700291
 20
-56.61568086043007
 30
0.0
 40
1.3
 41
0.0
 71
     8
 72
     1
  1
Name
  7
CONVERTER_14
 73
     1
 44
0.7202881152461
  0
MTEXT
  5
1EF
330
7A
100
AcDbEntity
  8
0
 62
     7
100
AcDbMText
 10
5426.866049700291
 20
-58.41568086043008
 30
0.0
 40
1.3
 41
0.0
 71
     8
 72
     1
  1
Doc. change no.
  7
CONVERTER_14
 73
     1
 44
0.7202881152461
  0
MTEXT
  5
1F0
330
7A
100
AcDbEntity
  8
0
 62
     7
100
AcDbMText
 10
5426.866049700291
 20
-56.61568086043007
 30
0.0
 40
1.3
 41
0.0
 71
     8
 72
     1
  1
Mitteilungs-Nr.
  7
CONVERTER_14
 73
     1
 44
0.7202881152461
  0
MTEXT
  5
1F1
330
7A
100
AcDbEntity
  8
0
 62
     4
100
AcDbMText
 10
5505.061607116712
 20
-36.47611015248318
 30
0.0
 40
5.0
 41
0.0
 71
     5
 72
     1
  1
/
  7
CONVERTER_11
 73
     1
 44
1.02040816326531
  0
MTEXT
  5
1F2
330
7A
100
AcDbEntity
  8
0
 62
     7
100
AcDbMText
 10
5396.066049700291
 20
-52.52611315248318
 30
0.0
 40
2.0
 41
0.0
 71
     5
 72
     1
  1
00
  7
CONVERTER_11
 73
     1
 44
1.02040816326531
  0
MTEXT
  5
1F3
330
7A
100
AcDbEntity
  8
0
 62
     7
100
AcDbMText
 10
5396.066049700291
 20
-48.22612515248317
 30
0.0
 40
2.0
 41
0.0
 71
     5
 72
     1
  1
 
  7
CONVERTER_11
 73
     1
 44
1.02040816326531
  0
MTEXT
  5
1F4
330
7A
100
AcDbEntity
  8
0
 62
     7
100
AcDbMText
 10
5396.066049700291
 20
-43.92613715248319
 30
0.0
 40
2.0
 41
0.0
 71
     5
 72
     1
  1
 
  7
CONVERTER_11
 73
     1
 44
1.02040816326531
  0
MTEXT
  5
1F5
330
7A
100
AcDbEntity
  8
0
 62
     7
100
AcDbMText
 10
5396.066049700291
 20
-39.62614915248317
 30
0.0
 40
2.0
 41
0.0
 71
     5
 72
     1
  1
 
  7
CONVERTER_11
 73
     1
 44
1.02040816326531
  0
MTEXT
  5
1F6
330
7A
100
AcDbEntity
  8
0
 62
     7
100
AcDbMText
 10
5396.066049700291
 20
-35.3261611524832
 30
0.0
 40
2.0
 41
0.0
 71
     5
 72
     1
  1
 
  7
CONVERTER_11
 73
     1
 44
1.02040816326531
  0
MTEXT
  5
1F7
330
7A
100
AcDbEntity
  8
0
 62
     7
100
AcDbMText
 10
5396.066049700291
 20
-31.02617315248317
 30
0.0
 40
2.0
 41
0.0
 71
     5
 72
     1
  1
 
  7
CONVERTER_11
 73
     1
 44
1.02040816326531
  0
MTEXT
  5
1F8
330
7A
100
AcDbEntity
  8
0
 62
     7
100
AcDbMText
 10
5396.066049700291
 20
-26.72618515248319
 30
0.0
 40
2.0
 41
0.0
 71
     5
 72
     1
  1
 
  7
CONVERTER_11
 73
     1
 44
1.02040816326531
  0
MTEXT
  5
1FA
330
7A
100
AcDbEntity
  8
0
 62
     7
100
AcDbMText
 10
5405.866049700291
 20
-22.42619715248318
 30
0.0
 40
2.0
 41
0.0
 71
     5
 72
     1
  1
 
  7
CONVERTER_17
 73
     1
 44
1.02040816326531
  0
MTEXT
  5
1FB
330
7A
100
AcDbEntity
  8
0
 62
     7
100
AcDbMText
 10
5396.066049700291
 20
-18.12620915248319
 30
0.0
 40
2.0
 41
0.0
 71
     5
 72
     1
  1
 
  7
CONVERTER_11
 73
     1
 44
1.02040816326531
  0
MTEXT
  5
1FC
330
7A
100
AcDbEntity
  8
0
 62
     7
100
AcDbMText
 10
5426.866049700291
 20
-18.12620915248319
 30
0.0
 40
2.0
 41
0.0
 71
     5
 72
     1
  1
 
  7
CONVERTER_11
 73
     1
 44
1.02040816326531
  0
MTEXT
  5
1FD
330
7A
100
AcDbEntity
  8
0
 62
     7
100
AcDbMText
 10
5415.666049700291
 20
-22.42619715248318
 30
0.0
 40
2.0
 41
0.0
 71
     5
 72
     1
  1
 
  7
CONVERTER_14
 73
     1
 44
1.02040816326531
  0
MTEXT
  5
1FE
330
7A
100
AcDbEntity
  8
0
 62
     7
100
AcDbMText
 10
5415.666049700291
 20
-26.72618515248319
 30
0.0
 40
2.0
 41
0.0
 71
     5
 72
     1
  1
 
  7
CONVERTER_14
 73
     1
 44
1.02040816326531
  0
MTEXT
  5
1FF
330
7A
100
AcDbEntity
  8
0
 62
     7
100
AcDbMText
 10
5415.666049700291
 20
-31.02617315248317
 30
0.0
 40
2.0
 41
0.0
 71
     5
 72
     1
  1
 
  7
CONVERTER_14
 73
     1
 44
1.02040816326531
  0
MTEXT
  5
200
330
7A
100
AcDbEntity
  8
0
 62
     7
100
AcDbMText
 10
5405.866049700291
 20
-35.3261611524832
 30
0.0
 40
2.0
 41
0.0
 71
     5
 72
     1
  1
 
  7
CONVERTER_17
 73
     1
 44
1.02040816326531
  0
MTEXT
  5
201
330
7A
100
AcDbEntity
  8
0
 62
     7
100
AcDbMText
 10
5415.666049700291
 20
-39.62614915248317
 30
0.0
 40
2.0
 41
0.0
 71
     5
 72
     1
  1
 
  7
CONVERTER_14
 73
     1
 44
1.02040816326531
  0
MTEXT
  5
202
330
7A
100
AcDbEntity
  8
0
 62
     7
100
AcDbMText
 10
5426.866049700291
 20
-43.92613715248319
 30
0.0
 40
2.0
 41
0.0
 71
     5
 72
     1
  1
 
  7
CONVERTER_11
 73
     1
 44
1.02040816326531
  0
MTEXT
  5
203
330
7A
100
AcDbEntity
  8
0
 62
     7
100
AcDbMText
 10
5426.866049700291
 20
-48.22612515248317
 30
0.0
 40
2.0
 41
0.0
 71
     5
 72
     1
  1
 
  7
CONVERTER_11
 73
     1
 44
1.02040816326531
  0
MTEXT
  5
204
330
7A
100
AcDbEntity
  8
0
 62
     7
100
AcDbMText
 10
5405.866049700291
 20
-52.52611315248318
 30
0.0
 40
2.0
 41
0.0
 71
     5
 72
     1
  1
15.11.17
  7
CONVERTER_17
 73
     1
 44
1.02040816326531
  0
MTEXT
  5
205
330
7A
100
AcDbEntity
  8
0
 62
     7
100
AcDbMText
 10
5415.666049700291
 20
-52.52611315248318
 30
0.0
 40
2.0
 41
0.0
 71
     5
 72
     1
  1
tbt7
  7
CONVERTER_14
 73
     1
 44
1.02040816326531
  0
MTEXT
  5
206
330
7A
100
AcDbEntity
  8
0
 62
     7
100
AcDbMText
 10
5426.866049700291
 20
-39.62614915248317
 30
0.0
 40
2.0
 41
0.0
 71
     5
 72
     1
  1
 
  7
CONVERTER_11
 73
     1
 44
1.02040816326531
  0
MTEXT
  5
207
330
7A
100
AcDbEntity
  8
0
 62
     7
100
AcDbMText
 10
5405.866049700291
 20
-43.92613715248319
 30
0.0
 40
2.0
 41
0.0
 71
     5
 72
     1
  1
 
  7
CONVERTER_17
 73
     1
 44
1.02040816326531
  0
MTEXT
  5
208
330
7A
100
AcDbEntity
  8
0
 62
     7
100
AcDbMText
 10
5426.866049700291
 20
-52.52611315248318
 30
0.0
 40
2.0
 41
0.0
 71
     5
 72
     1
  1
*
  7
CONVERTER_11
 73
     1
 44
1.02040816326531
  0
MTEXT
  5
209
330
7A
100
AcDbEntity
  8
0
 62
     7
100
AcDbMText
 10
5405.866049700291
 20
-48.22612515248317
 30
0.0
 40
2.0
 41
0.0
 71
     5
 72
     1
  1
 
  7
CONVERTER_17
 73
     1
 44
1.02040816326531
  0
MTEXT
  5
20A
330
7A
100
AcDbEntity
  8
0
 62
     7
100
AcDbMText
 10
5405.866049700291
 20
-39.62614915248317
 30
0.0
 40
2.0
 41
0.0
 71
     5
 72
     1
  1
 
  7
CONVERTER_17
 73
     1
 44
1.02040816326531
  0
MTEXT
  5
20B
330
7A
100
AcDbEntity
  8
0
 62
     7
100
AcDbMText
 10
5405.866049700291
 20
-31.02617315248317
 30
0.0
 40
2.0
 41
0.0
 71
     5
 72
     1
  1
 
  7
CONVERTER_17
 73
     1
 44
1.02040816326531
  0
MTEXT
  5
20C
330
7A
100
AcDbEntity
  8
0
 62
     7
100
AcDbMText
 10
5405.866049700291
 20
-26.72618515248319
 30
0.0
 40
2.0
 41
0.0
 71
     5
 72
     1
  1
 
  7
CONVERTER_17
 73
     1
 44
1.02040816326531
  0
MTEXT
  5
20D
330
7A
100
AcDbEntity
  8
0
 62
     7
100
AcDbMText
 10
5405.866049700291
 20
-18.12620915248319
 30
0.0
 40
2.0
 41
0.0
 71
     5
 72
     1
  1
 
  7
CONVERTER_17
 73
     1
 44
1.02040816326531
  0
MTEXT
  5
20E
330
7A
100
AcDbEntity
  8
0
 62
     7
100
AcDbMText
 10
5415.666049700291
 20
-48.22612515248317
 30
0.0
 40
2.0
 41
0.0
 71
     5
 72
     1
  1
 
  7
CONVERTER_14
 73
     1
 44
1.02040816326531
  0
MTEXT
  5
20F
330
7A
100
AcDbEntity
  8
0
 62
     7
100
AcDbMText
 10
5415.666049700291
 20
-43.92613715248319
 30
0.0
 40
2.0
 41
0.0
 71
     5
 72
     1
  1
 
  7
CONVERTER_14
 73
     1
 44
1.02040816326531
  0
MTEXT
  5
210
330
7A
100
AcDbEntity
  8
0
 62
     7
100
AcDbMText
 10
5415.666049700291
 20
-35.3261611524832
 30
0.0
 40
2.0
 41
0.0
 71
     5
 72
     1
  1
 
  7
CONVERTER_14
 73
     1
 44
1.02040816326531
  0
MTEXT
  5
211
330
7A
100
AcDbEntity
  8
0
 62
     7
100
AcDbMText
 10
5415.666049700291
 20
-18.12620915248319
 30
0.0
 40
2.0
 41
0.0
 71
     5
 72
     1
  1
 
  7
CONVERTER_14
 73
     1
 44
1.02040816326531
  0
MTEXT
  5
212
330
7A
100
AcDbEntity
  8
0
 62
     7
100
AcDbMText
 10
5426.866049700291
 20
-35.3261611524832
 30
0.0
 40
2.0
 41
0.0
 71
     5
 72
     1
  1
 
  7
CONVERTER_11
 73
     1
 44
1.02040816326531
  0
MTEXT
  5
213
330
7A
100
AcDbEntity
  8
0
 62
     7
100
AcDbMText
 10
5426.866049700291
 20
-31.02617315248317
 30
0.0
 40
2.0
 41
0.0
 71
     5
 72
     1
  1
 
  7
CONVERTER_11
 73
     1
 44
1.02040816326531
  0
MTEXT
  5
214
330
7A
100
AcDbEntity
  8
0
 62
     7
100
AcDbMText
 10
5426.866049700291
 20
-26.72618515248319
 30
0.0
 40
2.0
 41
0.0
 71
     5
 72
     1
  1
 
  7
CONVERTER_11
 73
     1
 44
1.02040816326531
  0
MTEXT
  5
215
330
7A
100
AcDbEntity
  8
0
 62
     7
100
AcDbMText
 10
5426.866049700291
 20
-22.42619715248318
 30
0.0
 40
2.0
 41
0.0
 71
     5
 72
     1
  1
 
  7
CONVERTER_11
 73
     1
 44
1.02040816326531
  0
MTEXT
  5
216
330
7A
100
AcDbEntity
  8
0
 62
     7
100
AcDbMText
 10
5396.066049700291
 20
-22.42619715248318
 30
0.0
 40
2.0
 41
0.0
 71
     5
 72
     1
  1
 
  7
CONVERTER_11
 73
     1
 44
1.02040816326531
  0
MTEXT
  5
217
330
7A
100
AcDbEntity
  8
0
 62
     3
100
AcDbMText
 10
5468.352510709088
 20
-39.16249493464479
 30
0.0
 40
2.0
 41
0.0
 71
     5
 72
     1
  1
15.11.17
  7
CONVERTER_17
 73
     1
 44
1.02040816326531
  0
MTEXT
  5
218
330
7A
100
AcDbEntity
  8
0
 62
     3
100
AcDbMText
 10
5479.366049700291
 20
-39.16249493464479
 30
0.0
 40
2.0
 41
0.0
 71
     5
 72
     1
  1
tbt7
  7
CONVERTER_17
 73
     1
 44
1.02040816326531
  0
MTEXT
  5
219
330
7A
100
AcDbEntity
  8
0
 62
     1
100
AcDbMText
 10
5498.044753184508
 20
-42.76485984508007
 30
0.0
 40
5.0
 41
0.0
 71
     5
 72
     1
  1
1:1
  7
CONVERTER_11
 73
     1
 44
1.02040816326531
  0
MTEXT
  5
21A
330
7A
100
AcDbEntity
  8
0
 62
     3
100
AcDbMText
 10
5468.352510709088
 20
-43.48794102178007
 30
0.0
 40
2.0
 41
0.0
 71
     5
 72
     1
  1
 
  7
CONVERTER_17
 73
     1
 44
1.02040816326531
  0
MTEXT
  5
21B
330
7A
100
AcDbEntity
  8
0
 62
     3
100
AcDbMText
 10
5464.609057886706
 20
-56.56597448400668
 30
0.0
 40
2.5
 41
0.0
 71
     5
 72
     1
  1
 
  7
CONVERTER_11
 73
     1
 44
1.02040816326531
  0
MTEXT
  5
21C
330
7A
100
AcDbEntity
  8
0
 62
     3
100
AcDbMText
 10
5464.609057886706
 20
-49.06597448400668
 30
0.0
 40
2.5
 41
0.0
 71
     5
 72
     1
  1
 
  7
CONVERTER_11
 73
     1
 44
1.02040816326531
  0
MTEXT
  5
21D
330
7A
100
AcDbEntity
  8
0
 62
     3
100
AcDbMText
 10
5479.366049700291
 20
-43.48794102178007
 30
0.0
 40
2.0
 41
0.0
 71
     5
 72
     1
  1
 
  7
CONVERTER_17
 73
     1
 44
1.02040816326531
  0
MTEXT
  5
21E
330
7A
100
AcDbEntity
  8
0
 62
     4
100
AcDbMText
 10
5521.866049700291
 20
-29.42513921353468
 30
0.0
 40
3.5
 41
0.0
 71
     5
 72
     1
  1
fuer/ for glass fitting GK20
  7
CONVERTER_14
 73
     1
 44
1.02040816326531
  0
MTEXT
  5
21F
330
7A
100
AcDbEntity
  8
0
 62
     1
100
AcDbMText
 10
5521.866049700291
 20
-22.536872608641
 30
0.0
 40
4.5
 41
0.0
 71
     5
 72
     1
  1
Glasbearbeitung / glass machining
  7
CONVERTER_13
 73
     1
 44
1.02040816326531
  0
MTEXT
  5
220
330
7A
100
AcDbEntity
  8
0
 62
     1
100
AcDbMText
 10
5540.866049700291
 20
-40.46595897042498
 30
0.0
 40
5.0
 41
0.0
 71
     5
 72
     1
  1
 
  7
CONVERTER_11
 73
     1
 44
1.02040816326531
  0
MTEXT
  5
221
330
7A
100
AcDbEntity
  8
0
 62
     1
100
AcDbMText
 10
5540.866049700291
 20
-53.5905910667553
 30
0.0
 40
5.0
 41
0.0
 71
     5
 72
     1
  1
21300-9-0969
  7
CONVERTER_14
 73
     1
 44
1.02040816326531
  0
MTEXT
  5
222
330
7A
100
AcDbEntity
  8
0
 62
     4
100
AcDbMText
 10
5508.281853144616
 20
-36.47611015248318
 30
0.0
 40
3.5
 41
0.0
 71
     5
 72
     1
  1
-
  7
CONVERTER_11
 73
     1
 44
1.02040816326531
  0
MTEXT
  5
223
330
7A
100
AcDbEntity
  8
0
 62
     4
100
AcDbMText
 10
5501.488765113971
 20
-36.47611015248318
 30
0.0
 40
3.5
 41
0.0
 71
     5
 72
     1
  1
1
  7
CONVERTER_11
 73
     1
 44
1.02040816326531
  0
MTEXT
  5
224
330
7A
100
AcDbEntity
  8
0
 62
     7
100
AcDbMText
 10
5389.466049700292
 20
-56.87148382536446
 30
0.0
 40
1.3
 41
0.0
 71
     8
 72
     1
  1
EMPB
  7
CONVERTER_14
 73
     1
 44
0.7202881152461
  0
TEXT
  5
226
330
7A
100
AcDbEntity
  8
0
 62
     4
100
AcDbText
 10
5434.893645420149
 20
-31.83524510058009
 30
0.0
 40
2.5
  1
vertraulich / confidential
 41
0.765
  7
CONVERTER_18
100
AcDbText
  0
MTEXT
  5
227
330
7A
100
AcDbEntity
  8
0
 62
     4
100
AcDbMText
 10
5389.066049700291
 20
-52.52611315248318
 30
0.0
 40
2.0
 41
0.0
 71
     5
 72
     1
  1
 
  7
CONVERTER_17
 73
     1
 44
1.02040816326531
  0
MTEXT
  5
228
330
7A
100
AcDbEntity
  8
0
 62
     4
100
AcDbMText
 10
5389.066049700291
 20
-48.22612515248317
 30
0.0
 40
2.0
 41
0.0
 71
     5
 72
     1
  1
 
  7
CONVERTER_17
 73
     1
 44
1.02040816326531
  0
MTEXT
  5
229
330
7A
100
AcDbEntity
  8
0
 62
     4
100
AcDbMText
 10
5389.066049700291
 20
-43.92613715248319
 30
0.0
 40
2.0
 41
0.0
 71
     5
 72
     1
  1
 
  7
CONVERTER_17
 73
     1
 44
1.02040816326531
  0
MTEXT
  5
22A
330
7A
100
AcDbEntity
  8
0
 62
     4
100
AcDbMText
 10
5389.066049700291
 20
-39.62614915248317
 30
0.0
 40
2.0
 41
0.0
 71
     5
 72
     1
  1
 
  7
CONVERTER_17
 73
     1
 44
1.02040816326531
  0
MTEXT
  5
22B
330
7A
100
AcDbEntity
  8
0
 62
     4
100
AcDbMText
 10
5389.066049700291
 20
-35.3261611524832
 30
0.0
 40
2.0
 41
0.0
 71
     5
 72
     1
  1
 
  7
CONVERTER_17
 73
     1
 44
1.02040816326531
  0
MTEXT
  5
22C
330
7A
100
AcDbEntity
  8
0
 62
     4
100
AcDbMText
 10
5389.066049700291
 20
-31.02617315248317
 30
0.0
 40
2.0
 41
0.0
 71
     5
 72
     1
  1
 
  7
CONVERTER_17
 73
     1
 44
1.02040816326531
  0
MTEXT
  5
22D
330
7A
100
AcDbEntity
  8
0
 62
     4
100
AcDbMText
 10
5389.066049700291
 20
-26.72618515248319
 30
0.0
 40
2.0
 41
0.0
 71
     5
 72
     1
  1
 
  7
CONVERTER_17
 73
     1
 44
1.02040816326531
  0
MTEXT
  5
22E
330
7A
100
AcDbEntity
  8
0
 62
     4
100
AcDbMText
 10
5389.066049700291
 20
-22.42619715248318
 30
0.0
 40
2.0
 41
0.0
 71
     5
 72
     1
  1
 
  7
CONVERTER_17
 73
     1
 44
1.02040816326531
  0
MTEXT
  5
22F
330
7A
100
AcDbEntity
  8
0
 62
     4
100
AcDbMText
 10
5389.066049700291
 20
-18.12620915248319
 30
0.0
 40
2.0
 41
0.0
 71
     5
 72
     1
  1
 
  7
CONVERTER_17
 73
     1
 44
1.02040816326531
  0
MTEXT
  5
230
330
7A
100
AcDbEntity
  8
1
 62
     7
100
AcDbMText
 10
5348.472614906325
 20
-55.97611015248318
 30
0.0
 40
2.0
 41
0.0
 71
     5
 72
     1
  1
EMPB = Erstmusterpr\U+00fcfbericht /First sample test report
  7
CONVERTER_18
 73
     1
 44
1.02040816326531
  0
MTEXT
  5
231
330
7A
100
AcDbEntity
  8
0
 62
     4
100
AcDbMText
 10
5156.533844371272
 20
-58.4645607709731
 30
0.0
 40
1.2
 41
0.0
 71
     7
 72
     1
  3
Diese Zeichnung entspricht dem Entwicklungsstand des Zeichnungsdatums bzw. der letzten \U+00c4nderungseintragung. Aus der\PBenutzung der Zeichnung k\U+00f6nnen keine Anspr\U+00fcche, gleich welcher Art, einschlie\U+00dflich Schadenersatzanspr\U+00fc
  3
che, abgeleitet\Pund gegen GEZE geltend gemacht werden. Die Zeichnung bleibt unser Eigentum und ist Dritten nur f\U+00fcr die Vertragsdauer zur\PBenutzung \U+00fcberlassen. S\U+00e4mtliche sich aus der Zeichnung ergebenden Anspr\U+00fcche stehen aus
  3
schlie\U+00dflich GEZE zu.\POhne vorherige Zustimmung von GEZE darf diese Zeichnung weder vervielf\U+00e4ltigt noch Dritten zug\U+00e4nglich gemacht werden.\PThis drawing shows the actual state of product development at the date of the drawing or th
  3
e revision date. No claims for\Pdamages in any form can be made against GEZE as a result of the interpretation of this drawing. This drawing remains the\Pproperty of GEZE and is made available to third parties only for the duration of contractural o
  1
bligations. All rights connected\Pwith this drawing remain in possession of GEZE. This drawing may not be copied or handed over to third parties without the\Pexpress consent of GEZE.
  7
CONVERTER_18
 73
     1
 44
0.84033613445378
  0
ENDBLK
  5
7C
330
7A
100
AcDbEntity
  8
0
100
AcDbBlockEnd
  0
BLOCK
  5
7F
330
7D
100
AcDbEntity
  8
0
100
AcDbBlockBegin
  2
rahmen
 70
     0
 10
5164.93149649188
 20
-53.7840607800019
 30
0.0
  3
rahmen
  1
rahmen
  0
INSERT
  5
7E
330
7D
100
AcDbEntity
  8
1
100
AcDbBlockReference
  2
a3kl
 10
5164.93149649188
 20
-53.7840607800019
 30
0.0
  0
ENDBLK
  5
80
330
7D
100
AcDbEntity
  8
0
100
AcDbBlockEnd
  0
BLOCK
  5
B7
330
AF
100
AcDbEntity
  8
0
100
AcDbBlockBegin
  2
*D4
 70
     1
 10
0.0
 20
0.0
 30
0.0
  3
*D4
  1
*D4
  0
LINE
  5
B0
330
AF
100
AcDbEntity
  8
1
  6
Continuous
 62
     3
100
AcDbLine
 10
5425.95134672763
 20
128.9576199855708
 30
0.0
 11
5425.95134672763
 21
91.95761998557082
 31
0.0
  0
LINE
  5
B1
330
AF
100
AcDbEntity
  8
1
  6
Continuous
 62
     3
100
AcDbLine
 10
5534.275489712862
 20
91.95761998557082
 30
0.0
 11
5423.95134672763
 21
91.95761998557082
 31
0.0
  0
LINE
  5
B2
330
AF
100
AcDbEntity
  8
1
  6
Continuous
 62
     3
100
AcDbLine
 10
5441.426149381334
 20
128.9576199855708
 30
0.0
 11
5423.95134672763
 21
128.9576199855708
 31
0.0
  0
SOLID
  5
B3
330
AF
100
AcDbEntity
  8
1
 62
     3
100
AcDbTrace
 10
5426.412130469186
 20
125.4576199855708
 30
0.0
 11
5425.490562986074
 21
125.4576199855708
 31
0.0
 12
5425.95134672763
 22
128.9576199855708
 32
0.0
 13
5425.95134672763
 23
128.9576199855708
 33
0.0
  0
SOLID
  5
B4
330
AF
100
AcDbEntity
  8
1
 62
     3
100
AcDbTrace
 10
5425.490562986074
 20
95.45761998557082
 30
0.0
 11
5426.412130469186
 21
95.45761998557082
 31
0.0
 12
5425.95134672763
 22
91.95761998557082
 32
0.0
 13
5425.95134672763
 23
91.95761998557082
 33
0.0
  0
MTEXT
  5
B6
330
AF
100
AcDbEntity
  8
1
 62
     4
100
AcDbMText
 10
5423.95134672763
 20
109.599220883401
 30
0.0
 40
3.5
 41
0.0
 71
     7
 72
     1
  1
37
  7
CONVERTER_11
 11
0.0
 21
1.0
 31
0.0
 73
     1
 44
0.60024009603842
  0
ENDBLK
  5
B8
330
AF
100
AcDbEntity
  8
0
100
AcDbBlockEnd
  0
BLOCK
  5
C2
330
BB
100
AcDbEntity
  8
0
100
AcDbBlockBegin
  2
*D5
 70
     1
 10
0.0
 20
0.0
 30
0.0
  3
*D5
  1
*D5
  0
LINE
  5
BC
330
BB
100
AcDbEntity
  8
1
  6
Continuous
 62
     3
100
AcDbLine
 10
5321.87442365066
 20
91.95761998557082
 30
0.0
 11
5321.87442365066
 21
128.9576199855708
 31
0.0
  0
LINE
  5
BD
330
BB
100
AcDbEntity
  8
1
  6
Continuous
 62
     3
100
AcDbLine
 10
5305.426149381334
 20
128.9576199855708
 30
0.0
 11
5323.87442365066
 21
128.9576199855708
 31
0.0
  0
LINE
  5
BE
330
BB
100
AcDbEntity
  8
1
  6
Continuous
 62
     3
100
AcDbLine
 10
5212.426149381334
 20
91.95761998557082
 30
0.0
 11
5323.87442365066
 21
91.95761998557082
 31
0.0
  0
SOLID
  5
BF
330
BB
100
AcDbEntity
  8
1
 62
     3
100
AcDbTrace
 10
5321.413639909104
 20
95.45761998557082
 30
0.0
 11
5322.335207392216
 21
95.45761998557082
 31
0.0
 12
5321.87442365066
 22
91.95761998557082
 32
0.0
 13
5321.87442365066
 23
91.95761998557082
 33
0.0
  0
SOLID
  5
C0
330
BB
100
AcDbEntity
  8
1
 62
     3
100
AcDbTrace
 10
5322.335207392216
 20
125.4576199855708
 30
0.0
 11
5321.413639909104
 21
125.4576199855708
 31
0.0
 12
5321.87442365066
 22
128.9576199855708
 32
0.0
 13
5321.87442365066
 23
128.9576199855708
 33
0.0
  0
MTEXT
  5
C1
330
BB
100
AcDbEntity
  8
1
 62
     4
100
AcDbMText
 10
5319.87442365066
 20
111.091363149737
 30
0.0
 40
3.5
 41
0.0
 71
     7
 72
     1
  1
37
  7
CONVERTER_11
 11
0.0
 21
1.0
 31
0.0
 73
     1
 44
0.60024009603842
  0
ENDBLK
  5
C3
330
BB
100
AcDbEntity
  8
0
100
AcDbBlockEnd
  0
BLOCK
  5
CD
330
C6
100
AcDbEntity
  8
0
100
AcDbBlockBegin
  2
*D6
 70
     1
 10
0.0
 20
0.0
 30
0.0
  3
*D6
  1
*D6
  0
LINE
  5
C7
330
C6
100
AcDbEntity
  8
1
  6
Continuous
 62
     3
100
AcDbLine
 10
5373.426149381334
 20
167.6569859307945
 30
0.0
 11
5212.426149381334
 21
167.6569859307945
 31
0.0
  0
LINE
  5
C8
330
C6
100
AcDbEntity
  8
1
  6
Continuous
 62
     3
100
AcDbLine
 10
5212.426149381334
 20
152.4153251272529
 30
0.0
 11
5212.426149381334
 21
169.6569859307945
 31
0.0
  0
LINE
  5
C9
330
C6
100
AcDbEntity
  8
1
  6
Continuous
 62
     3
100
AcDbLine
 10
5373.426149381334
 20
128.9576199855708
 30
0.0
 11
5373.426149381334
 21
169.6569859307945
 31
0.0
  0
SOLID
  5
CA
330
C6
100
AcDbEntity
  8
1
 62
     3
100
AcDbTrace
 10
5369.926149381334
 20
167.1962021892386
 30
0.0
 11
5369.926149381334
 21
168.1177696723503
 31
0.0
 12
5373.426149381334
 22
167.6569859307945
 32
0.0
 13
5373.426149381334
 23
167.6569859307945
 33
0.0
  0
SOLID
  5
CB
330
C6
100
AcDbEntity
  8
1
 62
     3
100
AcDbTrace
 10
5215.926149381334
 20
168.1177696723503
 30
0.0
 11
5215.926149381334
 21
167.1962021892386
 31
0.0
 12
5212.426149381334
 22
167.6569859307945
 32
0.0
 13
5212.426149381334
 23
167.6569859307945
 33
0.0
  0
MTEXT
  5
CC
330
C6
100
AcDbEntity
  8
1
 62
     4
100
AcDbMText
 10
5289.238728240897
 20
168.6569859307945
 30
0.0
 40
3.49999999999987
 41
0.0
 71
     7
 72
     1
  1
161
  7
CONVERTER_11
 11
0.9999999999970619
 21
2.424068405545306E-6
 31
0.0
 73
     1
 44
0.60024009603842
  0
ENDBLK
  5
CE
330
C6
100
AcDbEntity
  8
0
100
AcDbBlockEnd
  0
BLOCK
  5
D8
330
D1
100
AcDbEntity
  8
0
100
AcDbBlockBegin
  2
*D7
 70
     1
 10
0.0
 20
0.0
 30
0.0
  3
*D7
  1
*D7
  0
LINE
  5
D2
330
D1
100
AcDbEntity
  8
1
  6
Continuous
 62
     3
100
AcDbLine
 10
5373.426149381335
 20
167.7037949035065
 30
0.0
 11
5534.426149381335
 21
167.7037949035065
 31
0.0
  0
LINE
  5
D3
330
D1
100
AcDbEntity
  8
1
  6
Continuous
 62
     3
100
AcDbLine
 10
5534.426149381335
 20
152.4153251272529
 30
0.0
 11
5534.426149381335
 21
169.7037949035065
 31
0.0
  0
LINE
  5
D4
330
D1
100
AcDbEntity
  8
1
  6
Continuous
 62
     3
100
AcDbLine
 10
5373.426149381335
 20
128.9576199855708
 30
0.0
 11
5373.426149381335
 21
169.7037949035065
 31
0.0
  0
SOLID
  5
D5
330
D1
100
AcDbEntity
  8
1
 62
     3
100
AcDbTrace
 10
5376.926149381335
 20
168.1645786450623
 30
0.0
 11
5376.926149381335
 21
167.2430111619506
 31
0.0
 12
5373.426149381335
 22
167.7037949035065
 32
0.0
 13
5373.426149381335
 23
167.7037949035065
 33
0.0
  0
SOLID
  5
D6
330
D1
100
AcDbEntity
  8
1
 62
     3
100
AcDbTrace
 10
5530.926149381335
 20
167.2430111619506
 30
0.0
 11
5530.926149381335
 21
168.1645786450623
 31
0.0
 12
5534.426149381335
 22
167.7037949035065
 32
0.0
 13
5534.426149381335
 23
167.7037949035065
 33
0.0
  0
MTEXT
  5
D7
330
D1
100
AcDbEntity
  8
1
 62
     4
100
AcDbMText
 10
5453.050626893076
 20
168.7037949035065
 30
0.0
 40
3.49999999999987
 41
0.0
 71
     7
 72
     1
  1
161
  7
CONVERTER_11
 11
0.9999999999970619
 21
2.424068405545306E-6
 31
0.0
 73
     1
 44
0.60024009603842
  0
ENDBLK
  5
D9
330
D1
100
AcDbEntity
  8
0
100
AcDbBlockEnd
  0
BLOCK
  5
E3
330
DC
100
AcDbEntity
  8
0
100
AcDbBlockBegin
  2
*D8
 70
     1
 10
0.0
 20
0.0
 30
0.0
  3
*D8
  1
*D8
  0
LINE
  5
DD
330
DC
100
AcDbEntity
  8
DUENN
  6
Continuous
 62
     3
100
AcDbLine
 10
5373.426149381334
 20
155.6627291608723
 30
0.0
 11
5521.426149381334
 21
155.6627291608723
 31
0.0
  0
LINE
  5
DE
330
DC
100
AcDbEntity
  8
DUENN
  6
Continuous
 62
     3
100
AcDbLine
 10
5521.426149381334
 20
128.6709565986188
 30
0.0
 11
5521.426149381334
 21
157.6627291608723
 31
0.0
  0
LINE
  5
DF
330
DC
100
AcDbEntity
  8
DUENN
  6
Continuous
 62
     3
100
AcDbLine
 10
5373.426149381334
 20
128.9576199855708
 30
0.0
 11
5373.426149381334
 21
157.6627291608723
 31
0.0
  0
SOLID
  5
E0
330
DC
100
AcDbEntity
  8
DUENN
 62
     3
100
AcDbTrace
 10
5376.926149381334
 20
156.1235129024281
 30
0.0
 11
5376.926149381334
 21
155.2019454193164
 31
0.0
 12
5373.426149381334
 22
155.6627291608723
 32
0.0
 13
5373.426149381334
 23
155.6627291608723
 33
0.0
  0
SOLID
  5
E1
330
DC
100
AcDbEntity
  8
DUENN
 62
     3
100
AcDbTrace
 10
5517.926149381334
 20
155.2019454193164
 30
0.0
 11
5517.926149381334
 21
156.1235129024281
 31
0.0
 12
5521.426149381334
 22
155.6627291608723
 32
0.0
 13
5521.426149381334
 23
155.6627291608723
 33
0.0
  0
MTEXT
  5
E2
330
DC
100
AcDbEntity
  8
DUENN
 62
     4
100
AcDbMText
 10
5449.751149381334
 20
156.6627291608723
 30
0.0
 40
3.49999999999987
 41
0.0
 71
     7
 72
     1
  1
148
  7
CONVERTER_11
 11
0.9999999999970619
 21
2.424068405545306E-6
 31
0.0
 73
     1
 44
0.60024009603842
  0
ENDBLK
  5
E4
330
DC
100
AcDbEntity
  8
0
100
AcDbBlockEnd
  0
BLOCK
  5
EE
330
E7
100
AcDbEntity
  8
0
100
AcDbBlockBegin
  2
*D9
 70
     1
 10
0.0
 20
0.0
 30
0.0
  3
*D9
  1
*D9
  0
LINE
  5
E8
330
E7
100
AcDbEntity
  8
DUENN
  6
Continuous
 62
     3
100
AcDbLine
 10
5373.426149381334
 20
155.6627291608723
 30
0.0
 11
5225.426149381334
 21
155.6627291608723
 31
0.0
  0
LINE
  5
E9
330
E7
100
AcDbEntity
  8
DUENN
  6
Continuous
 62
     3
100
AcDbLine
 10
5225.426149381334
 20
128.6709565986188
 30
0.0
 11
5225.426149381334
 21
157.6627291608723
 31
0.0
  0
LINE
  5
EA
330
E7
100
AcDbEntity
  8
DUENN
  6
Continuous
 62
     3
100
AcDbLine
 10
5373.426149381334
 20
128.9576199855708
 30
0.0
 11
5373.426149381334
 21
157.6627291608723
 31
0.0
  0
SOLID
  5
EB
330
E7
100
AcDbEntity
  8
DUENN
 62
     3
100
AcDbTrace
 10
5369.926149381334
 20
155.2019454193164
 30
0.0
 11
5369.926149381334
 21
156.1235129024281
 31
0.0
 12
5373.426149381334
 22
155.6627291608723
 32
0.0
 13
5373.426149381334
 23
155.6627291608723
 33
0.0
  0
SOLID
  5
EC
330
E7
100
AcDbEntity
  8
DUENN
 62
     3
100
AcDbTrace
 10
5228.926149381334
 20
156.1235129024281
 30
0.0
 11
5228.926149381334
 21
155.2019454193164
 31
0.0
 12
5225.426149381334
 22
155.6627291608723
 32
0.0
 13
5225.426149381334
 23
155.6627291608723
 33
0.0
  0
MTEXT
  5
ED
330
E7
100
AcDbEntity
  8
DUENN
 62
     4
100
AcDbMText
 10
5292.751149381334
 20
156.6627291608723
 30
0.0
 40
3.49999999999987
 41
0.0
 71
     7
 72
     1
  1
148
  7
CONVERTER_11
 11
0.9999999999970619
 21
2.424068405545306E-6
 31
0.0
 73
     1
 44
0.60024009603842
  0
ENDBLK
  5
EF
330
E7
100
AcDbEntity
  8
0
100
AcDbBlockEnd
  0
BLOCK
  5
F9
330
F2
100
AcDbEntity
  8
0
100
AcDbBlockBegin
  2
*D10
 70
     1
 10
0.0
 20
0.0
 30
0.0
  3
*D10
  1
*D10
  0
LINE
  5
F3
330
F2
100
AcDbEntity
  8
DUENN
  6
Continuous
 62
     3
100
AcDbLine
 10
5373.426149381334
 20
143.0035062667108
 30
0.0
 11
5305.426149381334
 21
143.0035062667108
 31
0.0
  0
LINE
  5
F4
330
F2
100
AcDbEntity
  8
DUENN
  6
Continuous
 62
     3
100
AcDbLine
 10
5305.426149381334
 20
128.9576199855708
 30
0.0
 11
5305.426149381334
 21
145.0035062667108
 31
0.0
  0
LINE
  5
F5
330
F2
100
AcDbEntity
  8
DUENN
  6
Continuous
 62
     3
100
AcDbLine
 10
5373.426149381334
 20
128.9576199855708
 30
0.0
 11
5373.426149381334
 21
145.0035062667108
 31
0.0
  0
SOLID
  5
F6
330
F2
100
AcDbEntity
  8
DUENN
 62
     3
100
AcDbTrace
 10
5369.926149381334
 20
142.542722525155
 30
0.0
 11
5369.926149381334
 21
143.4642900082667
 31
0.0
 12
5373.426149381334
 22
143.0035062667108
 32
0.0
 13
5373.426149381334
 23
143.0035062667108
 33
0.0
  0
SOLID
  5
F7
330
F2
100
AcDbEntity
  8
DUENN
 62
     3
100
AcDbTrace
 10
5308.926149381334
 20
143.4642900082667
 30
0.0
 11
5308.926149381334
 21
142.542722525155
 31
0.0
 12
5305.426149381334
 22
143.0035062667108
 32
0.0
 13
5305.426149381334
 23
143.0035062667108
 33
0.0
  0
MTEXT
  5
F8
330
F2
100
AcDbEntity
  8
DUENN
 62
     4
100
AcDbMText
 10
5337.801149381334
 20
144.0035062667108
 30
0.0
 40
3.49999999999987
 41
0.0
 71
     7
 72
     1
  1
68
  7
CONVERTER_11
 11
0.9999999999970619
 21
2.424068405545306E-6
 31
0.0
 73
     1
 44
0.60024009603842
  0
ENDBLK
  5
FA
330
F2
100
AcDbEntity
  8
0
100
AcDbBlockEnd
  0
BLOCK
  5
104
330
FD
100
AcDbEntity
  8
0
100
AcDbBlockBegin
  2
*D11
 70
     1
 10
0.0
 20
0.0
 30
0.0
  3
*D11
  1
*D11
  0
LINE
  5
FE
330
FD
100
AcDbEntity
  8
DUENN
  6
Continuous
 62
     3
100
AcDbLine
 10
5373.426149381334
 20
143.0035062667108
 30
0.0
 11
5441.426149381334
 21
143.0035062667108
 31
0.0
  0
LINE
  5
FF
330
FD
100
AcDbEntity
  8
DUENN
  6
Continuous
 62
     3
100
AcDbLine
 10
5441.426149381334
 20
128.9576199855708
 30
0.0
 11
5441.426149381334
 21
145.0035062667108
 31
0.0
  0
LINE
  5
100
330
FD
100
AcDbEntity
  8
DUENN
  6
Continuous
 62
     3
100
AcDbLine
 10
5373.426149381334
 20
128.9576199855708
 30
0.0
 11
5373.426149381334
 21
145.0035062667108
 31
0.0
  0
SOLID
  5
101
330
FD
100
AcDbEntity
  8
DUENN
 62
     3
100
AcDbTrace
 10
5376.926149381334
 20
143.4642900082667
 30
0.0
 11
5376.926149381334
 21
142.542722525155
 31
0.0
 12
5373.426149381334
 22
143.0035062667108
 32
0.0
 13
5373.426149381334
 23
143.0035062667108
 33
0.0
  0
SOLID
  5
102
330
FD
100
AcDbEntity
  8
DUENN
 62
     3
100
AcDbTrace
 10
5437.926149381334
 20
142.542722525155
 30
0.0
 11
5437.926149381334
 21
143.4642900082667
 31
0.0
 12
5441.426149381334
 22
143.0035062667108
 32
0.0
 13
5441.426149381334
 23
143.0035062667108
 33
0.0
  0
MTEXT
  5
103
330
FD
100
AcDbEntity
  8
DUENN
 62
     4
100
AcDbMText
 10
5409.801149381334
 20
144.0035062667108
 30
0.0
 40
3.49999999999987
 41
0.0
 71
     7
 72
     1
  1
68
  7
CONVERTER_11
 11
0.9999999999970619
 21
2.424068405545306E-6
 31
0.0
 73
     1
 44
0.60024009603842
  0
ENDBLK
  5
105
330
FD
100
AcDbEntity
  8
0
100
AcDbBlockEnd
  0
BLOCK
  5
10F
330
108
100
AcDbEntity
  8
0
100
AcDbBlockBegin
  2
*D12
 70
     1
 10
0.0
 20
0.0
 30
0.0
  3
*D12
  1
*D12
  0
LINE
  5
109
330
108
100
AcDbEntity
  8
DUENN
  6
Continuous
 62
     3
100
AcDbLine
 10
5538.189375847416
 20
127.9576199855708
 30
0.0
 11
5538.189375847416
 21
91.9576199855708
 31
0.0
  0
LINE
  5
10A
330
108
100
AcDbEntity
  8
DUENN
  6
Continuous
 62
     3
100
AcDbLine
 10
5534.275489712862
 20
91.9576199855708
 30
0.0
 11
5540.189375847416
 21
91.9576199855708
 31
0.0
  0
LINE
  5
10B
330
108
100
AcDbEntity
  8
DUENN
  6
Continuous
 62
     3
100
AcDbLine
 10
5531.426149381334
 20
127.9576199855708
 30
0.0
 11
5540.189375847416
 21
127.9576199855708
 31
0.0
  0
SOLID
  5
10C
330
108
100
AcDbEntity
  8
DUENN
 62
     3
100
AcDbTrace
 10
5538.650159588972
 20
124.4576199855709
 30
0.0
 11
5537.72859210586
 21
124.4576199855709
 31
0.0
 12
5538.189375847416
 22
127.9576199855708
 32
0.0
 13
5538.189375847416
 23
127.9576199855708
 33
0.0
  0
SOLID
  5
10D
330
108
100
AcDbEntity
  8
DUENN
 62
     3
100
AcDbTrace
 10
5537.72859210586
 20
95.45761998557067
 30
0.0
 11
5538.650159588972
 21
95.45761998557067
 31
0.0
 12
5538.189375847416
 22
91.9576199855708
 32
0.0
 13
5538.189375847416
 23
91.9576199855708
 33
0.0
  0
MTEXT
  5
10E
330
108
100
AcDbEntity
  8
DUENN
 62
     4
100
AcDbMText
 10
5537.189375847416
 20
108.3326199855709
 30
0.0
 40
3.49999999999987
 41
0.0
 71
     7
 72
     1
  1
36
  7
CONVERTER_11
 11
0.0
 21
1.0
 31
0.0
 73
     1
 44
0.60024009603842
  0
ENDBLK
  5
110
330
108
100
AcDbEntity
  8
0
100
AcDbBlockEnd
  0
BLOCK
  5
11A
330
113
100
AcDbEntity
  8
0
100
AcDbBlockBegin
  2
*D13
 70
     1
 10
0.0
 20
0.0
 30
0.0
  3
*D13
  1
*D13
  0
LINE
  5
114
330
113
100
AcDbEntity
  8
1
  6
Continuous
 62
     3
100
AcDbLine
 10
5204.621031526397
 20
91.9576199855708
 30
0.0
 11
5204.621031526397
 21
127.9576199855708
 31
0.0
  0
LINE
  5
115
330
113
100
AcDbEntity
  8
1
  6
Continuous
 62
     3
100
AcDbLine
 10
5209.339951618861
 20
127.9576199855708
 30
0.0
 11
5202.621031526397
 21
127.9576199855708
 31
0.0
  0
LINE
  5
116
330
113
100
AcDbEntity
  8
1
  6
Continuous
 62
     3
100
AcDbLine
 10
5212.576809049807
 20
91.9576199855708
 30
0.0
 11
5202.621031526397
 21
91.9576199855708
 31
0.0
  0
SOLID
  5
117
330
113
100
AcDbEntity
  8
1
 62
     3
100
AcDbTrace
 10
5204.160247784841
 20
95.45761998557067
 30
0.0
 11
5205.081815267953
 21
95.45761998557067
 31
0.0
 12
5204.621031526397
 22
91.9576199855708
 32
0.0
 13
5204.621031526397
 23
91.9576199855708
 33
0.0
  0
SOLID
  5
118
330
113
100
AcDbEntity
  8
1
 62
     3
100
AcDbTrace
 10
5205.081815267953
 20
124.4576199855709
 30
0.0
 11
5204.160247784841
 21
124.4576199855709
 31
0.0
 12
5204.621031526397
 22
127.9576199855708
 32
0.0
 13
5204.621031526397
 23
127.9576199855708
 33
0.0
  0
MTEXT
  5
119
330
113
100
AcDbEntity
  8
1
 62
     4
100
AcDbMText
 10
5203.621031526397
 20
112.6166828904775
 30
0.0
 40
3.49999999999987
 41
0.0
 71
     7
 72
     1
  1
36
  7
CONVERTER_11
 11
0.0
 21
1.0
 31
0.0
 73
     1
 44
0.60024009603842
  0
ENDBLK
  5
11B
330
113
100
AcDbEntity
  8
0
100
AcDbBlockEnd
  0
BLOCK
  5
122
330
11E
100
AcDbEntity
  8
0
100
AcDbBlockBegin
  2
*D14
 70
     1
 10
0.0
 20
0.0
 30
0.0
  3
*D14
  1
*D14
  0
LINE
  5
11F
330
11E
100
AcDbEntity
  8
1
  6
Continuous
 62
     3
100
AcDbLine
 10
5463.209397350206
 20
97.04699458052929
 30
0.0
 11
5474.435464591639
 21
121.8300091967576
 31
0.0
  0
SOLID
  5
120
330
11E
100
AcDbEntity
  8
1
 62
     3
100
AcDbTrace
 10
5473.411037203149
 20
118.451715221658
 30
0.0
 11
5472.571576899229
 21
118.8319691158779
 31
0.0
 12
5474.435464591639
 22
121.8300091967576
 32
0.0
 13
5474.435464591639
 23
121.8300091967576
 33
0.0
  0
MTEXT
  5
121
330
11E
100
AcDbEntity
  8
1
 62
     4
100
AcDbMText
 10
5461.936367485298
 20
99.08373093142282
 30
0.0
 40
3.5
 41
0.0
 71
     7
 72
     1
  1
\C4;R\C4;80
  7
CONVERTER_11
 11
0.412616440128811
 21
0.9109048651398385
 31
0.0
 73
     1
 44
0.60024009603842
  0
ENDBLK
  5
123
330
11E
100
AcDbEntity
  8
0
100
AcDbBlockEnd
  0
BLOCK
  5
129
330
125
100
AcDbEntity
  8
0
100
AcDbBlockBegin
  2
*D15
 70
     1
 10
0.0
 20
0.0
 30
0.0
  3
*D15
  1
*D15
  0
LINE
  5
126
330
125
100
AcDbEntity
  8
1
  6
Continuous
 62
     3
100
AcDbLine
 10
5285.489721433796
 20
97.47567648957784
 30
0.0
 11
5275.020414906805
 21
122.9541828183442
 31
0.0
  0
SOLID
  5
127
330
125
100
AcDbEntity
  8
1
 62
     3
100
AcDbTrace
 10
5276.776870953621
 20
119.89196404561
 30
0.0
 11
5275.924460626512
 21
119.5417023432115
 31
0.0
 12
5275.020414906805
 22
122.9541828183442
 32
0.0
 13
5275.020414906805
 23
122.9541828183442
 33
0.0
  0
MTEXT
  5
128
330
125
100
AcDbEntity
  8
1
 62
     4
100
AcDbMText
 10
5284.253453455451
 20
105.7464709789675
 30
0.0
 40
3.5
 41
0.0
 71
     7
 72
     1
  1
\C4;R\C4;80
  7
CONVERTER_11
 11
0.3800716809316053
 21
-0.9249570354096583
 31
0.0
 73
     1
 44
0.60024009603842
  0
ENDBLK
  5
12A
330
125
100
AcDbEntity
  8
0
100
AcDbBlockEnd
  0
BLOCK
  5
130
330
12C
100
AcDbEntity
  8
0
100
AcDbBlockBegin
  2
*D16
 70
     1
 10
0.0
 20
0.0
 30
0.0
  3
*D16
  1
*D16
  0
LINE
  5
12D
330
12C
100
AcDbEntity
  8
1
  6
Continuous
 62
     3
100
AcDbLine
 10
5515.541621458709
 20
113.0349910976072
 30
0.0
 11
5507.673988501436
 21
98.90221562501964
 31
0.0
  0
SOLID
  5
12E
330
12C
100
AcDbEntity
  8
1
 62
     3
100
AcDbTrace
 10
5508.973796029735
 20
102.184413371326
 30
0.0
 11
5509.779001448762
 21
101.7361602518732
 31
0.0
 12
5507.673988501436
 22
98.90221562501964
 32
0.0
 13
5507.673988501436
 23
98.90221562501964
 33
0.0
  0
MTEXT
  5
12F
330
12C
100
AcDbEntity
  8
1
 62
     4
100
AcDbMText
 10
5510.718295082249
 20
106.4266688698297
 30
0.0
 40
3.49999999999987
 41
0.0
 71
     7
 72
     1
  1
\C4;R\C4;55
  7
CONVERTER_11
 11
0.4864029250890506
 21
0.8737346247372915
 31
0.0
 73
     1
 44
0.60024009603842
  0
ENDBLK
  5
131
330
12C
100
AcDbEntity
  8
0
100
AcDbBlockEnd
  0
BLOCK
  5
137
330
133
100
AcDbEntity
  8
0
100
AcDbBlockBegin
  2
*D17
 70
     1
 10
0.0
 20
0.0
 30
0.0
  3
*D17
  1
*D17
  0
LINE
  5
134
330
133
100
AcDbEntity
  8
1
  6
Continuous
 62
     3
100
AcDbLine
 10
5231.535184228758
 20
112.7256514466403
 30
0.0
 11
5239.234304420313
 21
98.93343000379241
 31
0.0
  0
SOLID
  5
135
330
133
100
AcDbEntity
  8
1
 62
     3
100
AcDbTrace
 10
5237.125989718834
 20
101.7649191483959
 30
0.0
 11
5237.930672116834
 21
102.2141104932345
 31
0.0
 12
5239.234304420313
 22
98.93343000379241
 32
0.0
 13
5239.234304420313
 23
98.93343000379241
 33
0.0
  0
MTEXT
  5
136
330
133
100
AcDbEntity
  8
1
 62
     4
100
AcDbMText
 10
5233.056621250279
 20
112.0517602168806
 30
0.0
 40
3.49999999999987
 41
0.0
 71
     7
 72
     1
  1
\C4;R\C4;55
  7
CONVERTER_11
 11
0.4874210007087405
 21
-0.8731670905777943
 31
0.0
 73
     1
 44
0.60024009603842
  0
ENDBLK
  5
138
330
133
100
AcDbEntity
  8
0
100
AcDbBlockEnd
  0
BLOCK
  5
13F
330
13A
100
AcDbEntity
  8
0
100
AcDbBlockBegin
  2
*D18
 70
     1
 10
0.0
 20
0.0
 30
0.0
  3
*D18
  1
*D18
  0
LINE
  5
13B
330
13A
100
AcDbEntity
  8
1
  6
Continuous
 62
     3
100
AcDbLine
 10
5213.168631904368
 20
118.8848163779801
 30
0.0
 11
5243.666611628525
 21
141.4588964056494
 31
0.0
  0
SOLID
  5
13C
330
13A
100
AcDbEntity
  8
1
 62
     3
100
AcDbTrace
 10
5236.00292876142
 20
136.3596470982064
 30
0.0
 11
5236.551204222758
 21
135.6189172929312
 31
0.0
 12
5233.463865759671
 22
133.9069994003844
 32
0.0
 13
5233.463865759671
 23
133.9069994003844
 33
0.0
  0
SOLID
  5
13D
330
13A
100
AcDbEntity
  8
1
 62
     3
100
AcDbTrace
 10
5214.849370001247
 20
119.5555928729353
 30
0.0
 11
5214.301094539908
 21
120.2963226782104
 31
0.0
 12
5217.388433002996
 22
122.0082405707572
 32
0.0
 13
5217.388433002996
 23
122.0082405707572
 33
0.0
  0
MTEXT
  5
13E
330
13A
100
AcDbEntity
  8
1
 62
     4
100
AcDbMText
 10
5235.950110046352
 20
138.2355435964882
 30
0.0
 40
3.5
 41
0.0
 71
     7
 72
     1
  1
\C4;{\Fgdt;n}\C4;20
  7
CONVERTER_11
 11
0.8037716378337326
 21
0.5949379414813607
 31
0.0
 73
     1
 44
0.60024009603842
  0
ENDBLK
  5
140
330
13A
100
AcDbEntity
  8
0
100
AcDbBlockEnd
  0
BLOCK
  5
147
330
142
100
AcDbEntity
  8
0
100
AcDbBlockBegin
  2
*D19
 70
     1
 10
0.0
 20
0.0
 30
0.0
  3
*D19
  1
*D19
  0
LINE
  5
143
330
142
100
AcDbEntity
  8
1
  6
Continuous
 62
     3
100
AcDbLine
 10
5533.646108887469
 20
118.8342933078515
 30
0.0
 11
5501.041035472716
 21
143.1769874030693
 31
0.0
  0
SOLID
  5
144
330
142
100
AcDbEntity
  8
1
 62
     3
100
AcDbTrace
 10
5510.332816008558
 20
135.6647774600837
 30
0.0
 11
5510.884144612099
 21
136.4032376125949
 31
0.0
 12
5513.413061180589
 22
133.940129282436
 32
0.0
 13
5513.413061180589
 23
133.940129282436
 33
0.0
  0
SOLID
  5
145
330
142
100
AcDbEntity
  8
1
 62
     3
100
AcDbTrace
 10
5532.519482754109
 20
120.2504625110579
 30
0.0
 11
5531.968154150569
 21
119.5120023585467
 31
0.0
 12
5529.439237582079
 22
121.9751106887056
 32
0.0
 13
5529.439237582079
 23
121.9751106887056
 33
0.0
  0
MTEXT
  5
146
330
142
100
AcDbEntity
  8
1
 62
     4
100
AcDbMText
 10
5502.705027133101
 20
143.1826224866608
 30
0.0
 40
3.49999999999987
 41
0.0
 71
     7
 72
     1
  1
\C4;{\Fgdt;n}\C4;20
  7
CONVERTER_11
 11
0.8013088200745149
 21
-0.5982509296865227
 31
0.0
 73
     1
 44
0.60024009603842
  0
ENDBLK
  5
148
330
142
100
AcDbEntity
  8
0
100
AcDbBlockEnd
  0
ENDSEC
  0
SECTION
  2
ENTITIES
  0
INSERT
  5
81
330
1F
100
AcDbEntity
  8
1
100
AcDbBlockReference
  2
1
 10
5209.524363722698
 20
62.9576199855708
 30
0.0
  0
INSERT
  5
82
330
1F
100
AcDbEntity
  8
0
100
AcDbBlockReference
  2
rahmen
 10
5164.93149649188
 20
-53.7840607800019
 30
0.0
  0
TEXT
  5
232
330
1F
100
AcDbEntity
  8
DICK
 62
     4
100
AcDbText
 10
5232.0
 20
9.9733688269958
 30
0.0
 40
3.5
  1
fuer 10 mm und 12 mm ESG
 41
0.63
  7
CONVERTER_13
100
AcDbText
  0
TEXT
  5
233
330
1F
100
AcDbEntity
  8
DICK
 62
     4
100
AcDbText
 10
5232.0
 20
3.30027382565078
 30
0.0
 40
2.5
  1
for 10 mm and 12 mm toughened safety glass
 41
0.63
  7
CONVERTER_13
100
AcDbText
  0
ENDSEC
  0
SECTION
  2
OBJECTS
  0
DICTIONARY
  5
C
330
0
100
AcDbDictionary
281
     1
  3
ACAD_DETAILVIEWSTYLE
350
26F
  3
ACAD_GROUP
350
D
  3
ACAD_LAYOUT
350
1A
  3
ACAD_MATERIAL
350
43
  3
ACAD_MLEADERSTYLE
350
26E
  3
ACAD_MLINESTYLE
350
17
  3
ACAD_PLOTSETTINGS
350
19
  3
ACAD_PLOTSTYLENAME
350
E
  3
ACAD_SCALELIST
350
47
  3
ACAD_SECTIONVIEWSTYLE
350
270
  3
ACAD_TABLESTYLE
350
26D
  3
ACAD_VISUALSTYLE
350
2A
  3
AcDbVariableDictionary
350
234
  0
DICTIONARY
  5
26F
102
{ACAD_REACTORS
330
C
102
}
330
C
100
AcDbDictionary
281
     1
  0
DICTIONARY
  5
D
102
{ACAD_REACTORS
330
C
102
}
330
C
100
AcDbDictionary
281
     1
  0
DICTIONARY
  5
1A
102
{ACAD_REACTORS
330
C
102
}
330
C
100
AcDbDictionary
281
     1
  3
Layout1
350
1E
  3
Layout2
350
26
  3
Model
350
22
  0
DICTIONARY
  5
43
102
{ACAD_REACTORS
330
C
102
}
330
C
100
AcDbDictionary
281
     1
  3
ByBlock
350
45
  3
ByLayer
350
44
  3
Global
350
46
  0
DICTIONARY
  5
26E
102
{ACAD_REACTORS
330
C
102
}
330
C
100
AcDbDictionary
281
     1
  0
DICTIONARY
  5
17
102
{ACAD_REACTORS
330
C
102
}
330
C
100
AcDbDictionary
281
     1
  3
Standard
350
18
  0
DICTIONARY
  5
19
102
{ACAD_REACTORS
330
C
102
}
330
C
100
AcDbDictionary
281
     1
  0
ACDBDICTIONARYWDFLT
  5
E
102
{ACAD_REACTORS
330
C
102
}
330
C
100
AcDbDictionary
281
     1
  3
Normal
350
F
100
AcDbDictionaryWithDefault
340
F
  0
DICTIONARY
  5
47
102
{ACAD_REACTORS
330
C
102
}
330
C
100
AcDbDictionary
281
     1
  3
A0
350
48
  3
A1
350
49
  3
A2
350
4A
  3
A3
350
4B
  3
A4
350
4C
  3
A5
350
4D
  3
A6
350
4E
  3
A7
350
4F
  3
A8
350
50
  3
A9
350
51
  3
B0
350
52
  3
B1
350
53
  3
B2
350
54
  3
B3
350
55
  3
B4
350
56
  3
B5
350
57
  3
B6
350
58
  3
B7
350
59
  3
B8
350
5A
  3
B9
350
5B
  3
C0
350
5C
  3
C1
350
5D
  3
C2
350
5E
  3
C3
350
5F
  3
C4
350
60
  3
C5
350
61
  3
C6
350
62
  3
C7
350
63
  3
C8
350
64
  3
C9
350
65
  3
D0
350
66
  3
D1
350
67
  3
D2
350
68
  0
DICTIONARY
  5
270
102
{ACAD_REACTORS
330
C
102
}
330
C
100
AcDbDictionary
281
     1
  0
DICTIONARY
  5
26D
102
{ACAD_REACTORS
330
C
102
}
330
C
100
AcDbDictionary
281
     1
  0
DICTIONARY
  5
2A
102
{ACAD_REACTORS
330
C
102
}
330
C
100
AcDbDictionary
281
     1
  3
2dWireframe
350
2F
  3
Basic
350
32
  3
Brighten
350
36
  3
ColorChange
350
3A
  3
Conceptual
350
34
  3
Dim
350
35
  3
EdgeColorOff
350
3D
  3
Facepattern
350
39
  3
Flat
350
2B
  3
FlatWithEdges
350
2C
  3
Gouraud
350
2D
  3
GouraudWithEdges
350
2E
  3
Hidden
350
31
  3
JitterOff
350
3B
  3
Linepattern
350
38
  3
OverhangOff
350
3C
  3
Realistic
350
33
  3
Shaded
350
42
  3
Shaded with edges
350
41
  3
Shades of Gray
350
3E
  3
Sketchy
350
3F
  3
Thicken
350
37
  3
Wireframe
350
30
  3
X-Ray
350
40
  0
DICTIONARY
  5
234
102
{ACAD_REACTORS
330
C
102
}
330
C
100
AcDbDictionary
281
     1
  3
CANNOSCALE
350
235
  3
MSLTSCALE
350
236
  0
LAYOUT
  5
1E
102
{ACAD_REACTORS
330
1A
102
}
330
1A
100
AcDbPlotSettings
  1

  2
none_device
  4

  6

 40
0.0
 41
0.0
 42
0.0
 43
0.0
 44
0.0
 45
0.0
 46
0.0
 47
0.0
 48
0.0
 49
0.0
140
0.0
141
0.0
142
1.0
143
1.0
 70
   688
 72
     0
 73
     0
 74
     5
  7

 75
    16
 76
     0
 77
     2
 78
   300
147
1.0
148
0.0
149
0.0
100
AcDbLayout
  1
Layout1
 70
     1
 71
     1
 10
0.0
 20
0.0
 11
12.0
 21
9.0
 12
0.0
 22
0.0
 32
0.0
 14
1.00000000000000E+20
 24
1.00000000000000E+20
 34
1.00000000000000E+20
 15
-1.00000000000000E+20
 25
-1.00000000000000E+20
 35
-1.00000000000000E+20
146
0.0
 13
0.0
 23
0.0
 33
0.0
 16
1.0
 26
0.0
 36
0.0
 17
0.0
 27
1.0
 37
0.0
 76
     0
330
1B
  0
LAYOUT
  5
26
102
{ACAD_REACTORS
330
1A
102
}
330
1A
100
AcDbPlotSettings
  1

  2
none_device
  4

  6

 40
0.0
 41
0.0
 42
0.0
 43
0.0
 44
0.0
 45
0.0
 46
0.0
 47
0.0
 48
0.0
 49
0.0
140
0.0
141
0.0
142
1.0
143
1.0
 70
   688
 72
     0
 73
     0
 74
     5
  7

 75
    16
 76
     0
 77
     2
 78
   300
147
1.0
148
0.0
149
0.0
100
AcDbLayout
  1
Layout2
 70
     1
 71
     2
 10
0.0
 20
0.0
 11
0.0
 21
0.0
 12
0.0
 22
0.0
 32
0.0
 14
0.0
 24
0.0
 34
0.0
 15
0.0
 25
0.0
 35
0.0
146
0.0
 13
0.0
 23
0.0
 33
0.0
 16
1.0
 26
0.0
 36
0.0
 17
0.0
 27
1.0
 37
0.0
 76
     0
330
23
  0
LAYOUT
  5
22
102
{ACAD_REACTORS
330
1A
102
}
330
1A
100
AcDbPlotSettings
  1

  2
none_device
  4
Letter_(8.50_x_11.00_Inches)
  6

 40
6.35
 41
6.35
 42
6.35000508
 43
6.35000508
 44
215.9
 45
279.4
 46
0.0
 47
0.0
 48
0.0
 49
0.0
140
0.0
141
0.0
142
1.0
143
1.0
 70
  1712
 72
     0
 73
     0
 74
     0
  7

 75
     0
 76
     0
 77
     2
 78
   300
147
1.0
148
0.0
149
0.0
100
AcDbLayout
  1
Model
 70
     1
 71
     0
 10
0.0
 20
0.0
 11
12.0
 21
9.0
 12
0.0
 22
0.0
 32
0.0
 14
5155.866049700291
 24
-58.97611015248318
 34
0.0
 15
5565.866049700291
 25
227.0238898475168
 35
0.0
146
0.0
 13
0.0
 23
0.0
 33
0.0
 16
1.0
 26
0.0
 36
0.0
 17
0.0
 27
1.0
 37
0.0
 76
     0
330
1F
331
29
  0
MATERIAL
  5
45
102
{ACAD_REACTORS
330
43
102
}
102
{ACAD_XDICTIONARY
360
269
102
}
330
43
100
AcDbMaterial
  1
ByBlock
  0
MATERIAL
  5
44
102
{ACAD_REACTORS
330
43
102
}
102
{ACAD_XDICTIONARY
360
267
102
}
330
43
100
AcDbMaterial
  1
ByLayer
  0
MATERIAL
  5
46
102
{ACAD_REACTORS
330
43
102
}
102
{ACAD_XDICTIONARY
360
26B
102
}
330
43
100
AcDbMaterial
  1
Global
  0
MLINESTYLE
  5
18
102
{ACAD_REACTORS
330
17
102
}
330
17
100
AcDbMlineStyle
  2
Standard
 70
     0
  3

 62
   256
 51
90.0
 52
90.0
 71
     2
 49
0.5
 62
   256
  6
BYLAYER
 49
-0.5
 62
   256
  6
BYLAYER
  0
ACDBPLACEHOLDER
  5
F
102
{ACAD_REACTORS
330
E
102
}
330
E
  0
SCALE
  5
48
102
{ACAD_REACTORS
330
47
102
}
330
47
100
AcDbScale
 70
     0
300
1:1
140
1.0
141
1.0
290
     1
  0
SCALE
  5
49
102
{ACAD_REACTORS
330
47
102
}
330
47
100
AcDbScale
 70
     0
300
1:2
140
1.0
141
2.0
290
     0
  0
SCALE
  5
4A
102
{ACAD_REACTORS
330
47
102
}
330
47
100
AcDbScale
 70
     0
300
1:4
140
1.0
141
4.0
290
     0
  0
SCALE
  5
4B
102
{ACAD_REACTORS
330
47
102
}
330
47
100
AcDbScale
 70
     0
300
1:5
140
1.0
141
5.0
290
     0
  0
SCALE
  5
4C
102
{ACAD_REACTORS
330
47
102
}
330
47
100
AcDbScale
 70
     0
300
1:8
140
1.0
141
8.0
290
     0
  0
SCALE
  5
4D
102
{ACAD_REACTORS
330
47
102
}
330
47
100
AcDbScale
 70
     0
300
1:10
140
1.0
141
10.0
290
     0
  0
SCALE
  5
4E
102
{ACAD_REACTORS
330
47
102
}
330
47
100
AcDbScale
 70
     0
300
1:16
140
1.0
141
16.0
290
     0
  0
SCALE
  5
4F
102
{ACAD_REACTORS
330
47
102
}
330
47
100
AcDbScale
 70
     0
300
1:20
140
1.0
141
20.0
290
     0
  0
SCALE
  5
50
102
{ACAD_REACTORS
330
47
102
}
330
47
100
AcDbScale
 70
     0
300
1:30
140
1.0
141
30.0
290
     0
  0
SCALE
  5
51
102
{ACAD_REACTORS
330
47
102
}
330
47
100
AcDbScale
 70
     0
300
1:40
140
1.0
141
40.0
290
     0
  0
SCALE
  5
52
102
{ACAD_REACTORS
330
47
102
}
330
47
100
AcDbScale
 70
     0
300
1:50
140
1.0
141
50.0
290
     0
  0
SCALE
  5
53
102
{ACAD_REACTORS
330
47
102
}
330
47
100
AcDbScale
 70
     0
300
1:100
140
1.0
141
100.0
290
     0
  0
SCALE
  5
54
102
{ACAD_REACTORS
330
47
102
}
330
47
100
AcDbScale
 70
     0
300
2:1
140
2.0
141
1.0
290
     0
  0
SCALE
  5
55
102
{ACAD_REACTORS
330
47
102
}
330
47
100
AcDbScale
 70
     0
300
4:1
140
4.0
141
1.0
290
     0
  0
SCALE
  5
56
102
{ACAD_REACTORS
330
47
102
}
330
47
100
AcDbScale
 70
     0
300
8:1
140
8.0
141
1.0
290
     0
  0
SCALE
  5
57
102
{ACAD_REACTORS
330
47
102
}
330
47
100
AcDbScale
 70
     0
300
10:1
140
10.0
141
1.0
290
     0
  0
SCALE
  5
58
102
{ACAD_REACTORS
330
47
102
}
330
47
100
AcDbScale
 70
     0
300
100:1
140
100.0
141
1.0
290
     0
  0
SCALE
  5
59
102
{ACAD_REACTORS
330
47
102
}
330
47
100
AcDbScale
 70
     0
300
1/128" = 1'-0"
140
0.0078125
141
12.0
290
     0
  0
SCALE
  5
5A
102
{ACAD_REACTORS
330
47
102
}
330
47
100
AcDbScale
 70
     0
300
1/64" = 1'-0"
140
0.015625
141
12.0
290
     0
  0
SCALE
  5
5B
102
{ACAD_REACTORS
330
47
102
}
330
47
100
AcDbScale
 70
     0
300
1/32" = 1'-0"
140
0.03125
141
12.0
290
     0
  0
SCALE
  5
5C
102
{ACAD_REACTORS
330
47
102
}
330
47
100
AcDbScale
 70
     0
300
1/16" = 1'-0"
140
0.0625
141
12.0
290
     0
  0
SCALE
  5
5D
102
{ACAD_REACTORS
330
47
102
}
330
47
100
AcDbScale
 70
     0
300
3/32" = 1'-0"
140
0.09375
141
12.0
290
     0
  0
SCALE
  5
5E
102
{ACAD_REACTORS
330
47
102
}
330
47
100
AcDbScale
 70
     0
300
1/8" = 1'-0"
140
0.125
141
12.0
290
     0
  0
SCALE
  5
5F
102
{ACAD_REACTORS
330
47
102
}
330
47
100
AcDbScale
 70
     0
300
3/16" = 1'-0"
140
0.1875
141
12.0
290
     0
  0
SCALE
  5
60
102
{ACAD_REACTORS
330
47
102
}
330
47
100
AcDbScale
 70
     0
300
1/4" = 1'-0"
140
0.25
141
12.0
290
     0
  0
SCALE
  5
61
102
{ACAD_REACTORS
330
47
102
}
330
47
100
AcDbScale
 70
     0
300
3/8" = 1'-0"
140
0.375
141
12.0
290
     0
  0
SCALE
  5
62
102
{ACAD_REACTORS
330
47
102
}
330
47
100
AcDbScale
 70
     0
300
1/2" = 1'-0"
140
0.5
141
12.0
290
     0
  0
SCALE
  5
63
102
{ACAD_REACTORS
330
47
102
}
330
47
100
AcDbScale
 70
     0
300
3/4" = 1'-0"
140
0.75
141
12.0
290
     0
  0
SCALE
  5
64
102
{ACAD_REACTORS
330
47
102
}
330
47
100
AcDbScale
 70
     0
300
1" = 1'-0"
140
1.0
141
12.0
290
     0
  0
SCALE
  5
65
102
{ACAD_REACTORS
330
47
102
}
330
47
100
AcDbScale
 70
     0
300
1-1/2" = 1'-0"
140
1.5
141
12.0
290
     0
  0
SCALE
  5
66
102
{ACAD_REACTORS
330
47
102
}
330
47
100
AcDbScale
 70
     0
300
3" = 1'-0"
140
3.0
141
12.0
290
     0
  0
SCALE
  5
67
102
{ACAD_REACTORS
330
47
102
}
330
47
100
AcDbScale
 70
     0
300
6" = 1'-0"
140
6.0
141
12.0
290
     0
  0
SCALE
  5
68
102
{ACAD_REACTORS
330
47
102
}
330
47
100
AcDbScale
 70
     0
300
1'-0" = 1'-0"
140
12.0
141
12.0
290
     0
  0
VISUALSTYLE
  5
2F
102
{ACAD_REACTORS
330
2A
102
}
102
{ACAD_XDICTIONARY
360
23F
102
}
330
2A
100
AcDbVisualStyle
  2
2dWireframe
 70
     4
 71
     0
 72
     2
 73
     0
 90
        0
 40
0.6
 41
30.0
 62
     5
 63
     7
421
 16777215
 74
     1
 91
        4
 64
     7
 65
   257
 75
     1
175
     1
 42
1.0
 92
        0
 66
   257
 43
1.0
 76
     1
 77
     6
 78
     2
 67
     7
 79
     5
170
     0
171
     0
290
     0
174
     0
 93
        1
 44
0.0
173
     0
291
     0
 45
0.0
1001
ACAD
1000
AcDbSavedByObjectVersion
1070
     0
  0
VISUALSTYLE
  5
32
102
{ACAD_REACTORS
330
2A
102
}
102
{ACAD_XDICTIONARY
360
245
102
}
330
2A
100
AcDbVisualStyle
  2
Basic
 70
     7
 71
     1
 72
     0
 73
     1
 90
        0
 40
0.6
 41
30.0
 62
     5
 63
     7
421
 16777215
 74
     0
 91
        4
 64
     7
 65
   257
 75
     1
175
     1
 42
1.0
 92
        8
 66
     7
 43
1.0
 76
     1
 77
     6
 78
     2
 67
     7
 79
     5
170
     0
171
     0
290
     0
174
     0
 93
        1
 44
0.0
173
     0
291
     1
 45
0.0
1001
ACAD
1000
AcDbSavedByObjectVersion
1070
     0
  0
VISUALSTYLE
  5
36
102
{ACAD_REACTORS
330
2A
102
}
102
{ACAD_XDICTIONARY
360
24D
102
}
330
2A
100
AcDbVisualStyle
  2
Brighten
 70
    12
 71
     2
 72
     2
 73
     0
 90
        0
 40
0.6
 41
30.0
 62
     5
 63
     7
421
 16777215
 74
     1
 91
        4
 64
     7
 65
   257
 75
     1
175
     1
 42
1.0
 92
        8
 66
     7
 43
1.0
 76
     1
 77
     6
 78
     2
 67
     7
 79
     5
170
     0
171
     0
290
     0
174
     0
 93
        1
 44
50.0
173
     0
291
     1
 45
0.0
1001
ACAD
1000
AcDbSavedByObjectVersion
1070
     0
  0
VISUALSTYLE
  5
3A
102
{ACAD_REACTORS
330
2A
102
}
102
{ACAD_XDICTIONARY
360
255
102
}
330
2A
100
AcDbVisualStyle
  2
ColorChange
 70
    16
 71
     2
 72
     2
 73
     3
 90
        0
 40
0.6
 41
30.0
 62
     5
 63
     8
421
  8421504
 74
     1
 91
        4
 64
     7
 65
   257
 75
     1
175
     1
 42
1.0
 92
        8
 66
     8
424
  8421504
 43
1.0
 76
     1
 77
     6
 78
     2
 67
     7
 79
     5
170
     0
171
     0
290
     0
174
     0
 93
        1
 44
0.0
173
     0
291
     1
 45
0.0
1001
ACAD
1000
AcDbSavedByObjectVersion
1070
     0
  0
VISUALSTYLE
  5
34
102
{ACAD_REACTORS
330
2A
102
}
102
{ACAD_XDICTIONARY
360
249
102
}
330
2A
100
AcDbVisualStyle
  2
Conceptual
 70
     9
 71
     3
 72
     2
 73
     0
 90
        0
 40
0.6
 41
30.0
 62
     5
 63
     7
421
 16777215
 74
     2
 91
        2
 64
     7
 65
   257
 75
     1
175
     1
 42
179.0
 92
        8
 66
     7
 43
1.0
 76
     1
 77
     6
 78
     2
 67
     7
 79
     3
170
     0
171
     0
290
     0
174
     0
 93
        1
 44
0.0
173
     0
291
     0
 45
0.0
1001
ACAD
1000
AcDbSavedByObjectVersion
1070
     0
  0
VISUALSTYLE
  5
35
102
{ACAD_REACTORS
330
2A
102
}
102
{ACAD_XDICTIONARY
360
24B
102
}
330
2A
100
AcDbVisualStyle
  2
Dim
 70
    11
 71
     2
 72
     2
 73
     0
 90
        0
 40
0.6
 41
30.0
 62
     5
 63
     7
421
 16777215
 74
     1
 91
        4
 64
     7
 65
   257
 75
     1
175
     1
 42
1.0
 92
        8
 66
     7
 43
1.0
 76
     1
 77
     6
 78
     2
 67
     7
 79
     5
170
     0
171
     0
290
     0
174
     0
 93
        1
 44
-50.0
173
     0
291
     1
 45
0.0
1001
ACAD
1000
AcDbSavedByObjectVersion
1070
     0
  0
VISUALSTYLE
  5
3D
102
{ACAD_REACTORS
330
2A
102
}
102
{ACAD_XDICTIONARY
360
25B
102
}
330
2A
100
AcDbVisualStyle
  2
EdgeColorOff
 70
    22
 71
     2
 72
     2
 73
     0
 90
        0
 40
0.6
 41
30.0
 62
     5
 63
     7
421
 16777215
 74
     1
 91
        4
 64
     7
 65
   257
 75
     1
175
     1
 42
1.0
 92
        8
 66
     7
 43
1.0
 76
     1
 77
     6
 78
     2
 67
     7
 79
     5
170
     0
171
     0
290
     0
174
     0
 93
        1
 44
0.0
173
     0
291
     1
 45
0.0
1001
ACAD
1000
AcDbSavedByObjectVersion
1070
     0
  0
VISUALSTYLE
  5
39
102
{ACAD_REACTORS
330
2A
102
}
102
{ACAD_XDICTIONARY
360
253
102
}
330
2A
100
AcDbVisualStyle
  2
Facepattern
 70
    15
 71
     2
 72
     2
 73
     0
 90
        0
 40
0.6
 41
30.0
 62
     5
 63
     7
421
 16777215
 74
     1
 91
        4
 64
     7
 65
   257
 75
     1
175
     1
 42
1.0
 92
        8
 66
     7
 43
1.0
 76
     1
 77
     6
 78
     2
 67
     7
 79
     5
170
     0
171
     0
290
     0
174
     0
 93
        1
 44
0.0
173
     0
291
     1
 45
0.0
1001
ACAD
1000
AcDbSavedByObjectVersion
1070
     0
  0
VISUALSTYLE
  5
2B
102
{ACAD_REACTORS
330
2A
102
}
102
{ACAD_XDICTIONARY
360
237
102
}
330
2A
100
AcDbVisualStyle
  2
Flat
 70
     0
 71
     2
 72
     1
 73
     1
 90
        2
 40
0.6
 41
30.0
 62
     5
 63
     7
421
 16777215
 74
     0
 91
        0
 64
     7
 65
   257
 75
     1
175
     1
 42
1.0
 92
        8
 66
     7
 43
1.0
 76
     1
 77
     6
 78
     2
 67
     7
 79
     5
170
     0
171
     0
290
     0
174
     0
 93
       13
 44
0.0
173
     0
291
     1
 45
0.0
1001
ACAD
1000
AcDbSavedByObjectVersion
1070
     0
  0
VISUALSTYLE
  5
2C
102
{ACAD_REACTORS
330
2A
102
}
102
{ACAD_XDICTIONARY
360
239
102
}
330
2A
100
AcDbVisualStyle
  2
FlatWithEdges
 70
     1
 71
     2
 72
     1
 73
     1
 90
        2
 40
0.6
 41
30.0
 62
     5
 63
     7
421
 16777215
 74
     1
 91
        0
 64
     7
 65
   257
 75
     1
175
     1
 42
1.0
 92
        0
 66
   257
 43
1.0
 76
     1
 77
     6
 78
     2
 67
     7
 79
     5
170
     0
171
     0
290
     0
174
     0
 93
       13
 44
0.0
173
     0
291
     1
 45
0.0
1001
ACAD
1000
AcDbSavedByObjectVersion
1070
     0
  0
VISUALSTYLE
  5
2D
102
{ACAD_REACTORS
330
2A
102
}
102
{ACAD_XDICTIONARY
360
23B
102
}
330
2A
100
AcDbVisualStyle
  2
Gouraud
 70
     2
 71
     2
 72
     2
 73
     1
 90
        2
 40
0.6
 41
30.0
 62
     5
 63
     7
421
 16777215
 74
     0
 91
        0
 64
     7
 65
   257
 75
     1
175
     1
 42
1.0
 92
        0
 66
     7
 43
1.0
 76
     1
 77
     6
 78
     2
 67
     7
 79
     5
170
     0
171
     0
290
     0
174
     0
 93
       13
 44
0.0
173
     0
291
     1
 45
0.0
1001
ACAD
1000
AcDbSavedByObjectVersion
1070
     0
  0
VISUALSTYLE
  5
2E
102
{ACAD_REACTORS
330
2A
102
}
102
{ACAD_XDICTIONARY
360
23D
102
}
330
2A
100
AcDbVisualStyle
  2
GouraudWithEdges
 70
     3
 71
     2
 72
     2
 73
     1
 90
        2
 40
0.6
 41
30.0
 62
     5
 63
     7
421
 16777215
 74
     1
 91
        0
 64
     7
 65
   257
 75
     1
175
     1
 42
1.0
 92
        0
 66
   257
 43
1.0
 76
     1
 77
     6
 78
     2
 67
     7
 79
     5
170
     0
171
     0
290
     0
174
     0
 93
       13
 44
0.0
173
     0
291
     1
 45
0.0
1001
ACAD
1000
AcDbSavedByObjectVersion
1070
     0
  0
VISUALSTYLE
  5
31
102
{ACAD_REACTORS
330
2A
102
}
102
{ACAD_XDICTIONARY
360
243
102
}
330
2A
100
AcDbVisualStyle
  2
Hidden
 70
     6
 71
     1
 72
     2
 73
     2
 90
        0
 40
0.6
 41
30.0
 62
     5
 63
     7
421
 16777215
 74
     2
 91
        2
 64
     7
 65
   257
 75
     2
175
     1
 42
40.0
 92
        0
 66
   257
 43
1.0
 76
     1
 77
     6
 78
     2
 67
     7
 79
     3
170
     0
171
     0
290
     0
174
     0
 93
        1
 44
0.0
173
     0
291
     0
 45
0.0
1001
ACAD
1000
AcDbSavedByObjectVersion
1070
     0
  0
VISUALSTYLE
  5
3B
102
{ACAD_REACTORS
330
2A
102
}
102
{ACAD_XDICTIONARY
360
257
102
}
330
2A
100
AcDbVisualStyle
  2
JitterOff
 70
    20
 71
     2
 72
     2
 73
     0
 90
        0
 40
0.6
 41
30.0
 62
     5
 63
     7
421
 16777215
 74
     1
 91
        4
 64
     7
 65
   257
 75
     1
175
     1
 42
1.0
 92
       10
 66
     7
 43
1.0
 76
     1
 77
     6
 78
     2
 67
     7
 79
     5
170
     0
171
     0
290
     0
174
     0
 93
        1
 44
0.0
173
     0
291
     1
 45
0.0
1001
ACAD
1000
AcDbSavedByObjectVersion
1070
     0
  0
VISUALSTYLE
  5
38
102
{ACAD_REACTORS
330
2A
102
}
102
{ACAD_XDICTIONARY
360
251
102
}
330
2A
100
AcDbVisualStyle
  2
Linepattern
 70
    14
 71
     2
 72
     2
 73
     0
 90
        0
 40
0.6
 41
30.0
 62
     5
 63
     7
421
 16777215
 74
     1
 91
        4
 64
     7
 65
   257
 75
     7
175
     7
 42
1.0
 92
        8
 66
     7
 43
1.0
 76
     1
 77
     6
 78
     2
 67
     7
 79
     5
170
     0
171
     0
290
     0
174
     0
 93
        1
 44
0.0
173
     0
291
     1
 45
0.0
1001
ACAD
1000
AcDbSavedByObjectVersion
1070
     0
  0
VISUALSTYLE
  5
3C
102
{ACAD_REACTORS
330
2A
102
}
102
{ACAD_XDICTIONARY
360
259
102
}
330
2A
100
AcDbVisualStyle
  2
OverhangOff
 70
    21
 71
     2
 72
     2
 73
     0
 90
        0
 40
0.6
 41
30.0
 62
     5
 63
     7
421
 16777215
 74
     1
 91
        4
 64
     7
 65
   257
 75
     1
175
     1
 42
1.0
 92
        9
 66
     7
 43
1.0
 76
     1
 77
     6
 78
     2
 67
     7
 79
     5
170
     0
171
     0
290
     0
174
     0
 93
        1
 44
0.0
173
     0
291
     1
 45
0.0
1001
ACAD
1000
AcDbSavedByObjectVersion
1070
     0
  0
VISUALSTYLE
  5
33
102
{ACAD_REACTORS
330
2A
102
}
102
{ACAD_XDICTIONARY
360
247
102
}
330
2A
100
AcDbVisualStyle
  2
Realistic
 70
     8
 71
     2
 72
     3
 73
     0
 90
        2
 40
0.6
 41
30.0
 62
     5
 63
     7
421
 16777215
 74
     0
 91
        0
 64
     7
 65
   257
 75
     1
175
     1
 42
1.0
 92
        8
 66
   257
 43
1.0
 76
     1
 77
     6
 78
     2
 67
     7
 79
     3
170
     0
171
     0
290
     0
174
     0
 93
       13
 44
0.0
173
     0
291
     0
 45
0.0
1001
ACAD
1000
AcDbSavedByObjectVersion
1070
     0
  0
VISUALSTYLE
  5
42
102
{ACAD_REACTORS
330
2A
102
}
102
{ACAD_XDICTIONARY
360
265
102
}
330
2A
100
AcDbVisualStyle
  2
Shaded
 70
    27
 71
     2
 72
     2
 73
     1
 90
        2
 40
0.6
 41
30.0
 62
     5
 63
     7
421
 16777215
 74
     0
 91
        4
 64
     7
 65
   257
 75
     1
175
     1
 42
1.0
 92
        8
 66
   257
 43
1.0
 76
     1
 77
     6
 78
     2
 67
     8
425
  7895160
 79
     3
170
     0
171
     0
290
     0
174
     0
 93
        5
 44
0.0
173
     0
291
     0
 45
0.0
1001
ACAD
1000
AcDbSavedByObjectVersion
1070
     0
  0
VISUALSTYLE
  5
41
102
{ACAD_REACTORS
330
2A
102
}
102
{ACAD_XDICTIONARY
360
263
102
}
330
2A
100
AcDbVisualStyle
  2
Shaded with edges
 70
    26
 71
     2
 72
     2
 73
     1
 90
        2
 40
0.6
 41
30.0
 62
     5
 63
     7
421
 16777215
 74
     1
 91
       10
 64
     7
 65
   257
 75
     2
175
     1
 42
1.0
 92
        8
 66
   257
 43
1.0
 76
     1
 77
     6
 78
     2
 67
     7
 79
     3
170
     0
171
     0
290
     0
174
     0
 93
        5
 44
0.0
173
     0
291
     0
 45
0.0
1001
ACAD
1000
AcDbSavedByObjectVersion
1070
     0
  0
VISUALSTYLE
  5
3E
102
{ACAD_REACTORS
330
2A
102
}
102
{ACAD_XDICTIONARY
360
25D
102
}
330
2A
100
AcDbVisualStyle
  2
Shades of Gray
 70
    23
 71
     2
 72
     2
 73
     3
 90
        0
 40
0.6
 41
30.0
 62
     5
 63
     7
421
 16777215
 74
     2
 91
        2
 64
     7
 65
     7
 75
     1
175
     1
 42
40.0
 92
        8
 66
     7
 43
1.0
 76
     1
 77
     6
 78
     2
 67
     7
 79
     3
170
     0
171
     0
290
     0
174
     0
 93
        1
 44
0.0
173
     0
291
     0
 45
0.0
1001
ACAD
1000
AcDbSavedByObjectVersion
1070
     0
  0
VISUALSTYLE
  5
3F
102
{ACAD_REACTORS
330
2A
102
}
102
{ACAD_XDICTIONARY
360
25F
102
}
330
2A
100
AcDbVisualStyle
  2
Sketchy
 70
    24
 71
     1
 72
     2
 73
     2
 90
        0
 40
0.6
 41
30.0
 62
     5
 63
     7
421
 16777215
 74
     2
 91
        2
 64
     7
 65
     7
 75
     1
175
     1
 42
40.0
 92
       11
 66
     7
 43
1.0
 76
     1
 77
     6
 78
     2
 67
     7
 79
     6
170
     0
171
     0
290
     0
174
     0
 93
        1
 44
0.0
173
     0
291
     0
 45
0.0
1001
ACAD
1000
AcDbSavedByObjectVersion
1070
     0
  0
VISUALSTYLE
  5
37
102
{ACAD_REACTORS
330
2A
102
}
102
{ACAD_XDICTIONARY
360
24F
102
}
330
2A
100
AcDbVisualStyle
  2
Thicken
 70
    13
 71
     2
 72
     2
 73
     0
 90
        0
 40
0.6
 41
30.0
 62
     5
 63
     7
421
 16777215
 74
     1
 91
        4
 64
     7
 65
   257
 75
     1
175
     1
 42
1.0
 92
       12
 66
     7
 43
1.0
 76
     1
 77
     6
 78
     2
 67
     7
 79
     5
170
     0
171
     0
290
     0
174
     0
 93
        1
 44
0.0
173
     0
291
     1
 45
0.0
1001
ACAD
1000
AcDbSavedByObjectVersion
1070
     0
  0
VISUALSTYLE
  5
30
102
{ACAD_REACTORS
330
2A
102
}
102
{ACAD_XDICTIONARY
360
241
102
}
330
2A
100
AcDbVisualStyle
  2
Wireframe
 70
     5
 71
     0
 72
     2
 73
     0
 90
        0
 40
0.6
 41
30.0
 62
     5
 63
     7
421
 16777215
 74
     1
 91
        4
 64
     7
 65
   257
 75
     1
175
     1
 42
1.0
 92
        0
 66
   257
 43
1.0
 76
     1
 77
     6
 78
     2
 67
     7
 79
     3
170
     0
171
     0
290
     0
174
     0
 93
        1
 44
0.0
173
     0
291
     0
 45
0.0
1001
ACAD
1000
AcDbSavedByObjectVersion
1070
     0
  0
VISUALSTYLE
  5
40
102
{ACAD_REACTORS
330
2A
102
}
102
{ACAD_XDICTIONARY
360
261
102
}
330
2A
100
AcDbVisualStyle
  2
X-Ray
 70
    25
 71
     2
 72
     2
 73
     1
 90
        1
 40
0.5
 41
30.0
 62
     5
 63
     7
421
 16777215
 74
     1
 91
        0
 64
     7
 65
   257
 75
     1
175
     1
 42
1.0
 92
        8
 66
     7
 43
1.0
 76
     1
 77
     6
 78
     2
 67
     7
 79
     3
170
     0
171
     0
290
     0
174
     0
 93
       13
 44
0.0
173
     0
291
     0
 45
0.0
1001
ACAD
1000
AcDbSavedByObjectVersion
1070
     0
  0
DICTIONARYVAR
  5
235
102
{ACAD_REACTORS
330
234
102
}
330
234
100
DictionaryVariables
280
     0
  1
1:1
  0
DICTIONARYVAR
  5
236
102
{ACAD_REACTORS
330
234
102
}
330
234
100
DictionaryVariables
280
     0
  1
1
  0
DICTIONARY
  5
269
330
45
100
AcDbDictionary
280
     1
281
     1
  3
ACAD_XREC_ROUNDTRIP
360
26A
  0
DICTIONARY
  5
267
330
44
100
AcDbDictionary
280
     1
281
     1
  3
ACAD_XREC_ROUNDTRIP
360
268
  0
DICTIONARY
  5
26B
330
46
100
AcDbDictionary
280
     1
281
     1
  3
ACAD_XREC_ROUNDTRIP
360
26C
  0
DICTIONARY
  5
23F
330
2F
100
AcDbDictionary
280
     1
281
     1
  3
ACAD_XREC_ROUNDTRIP
360
240
  0
DICTIONARY
  5
245
330
32
100
AcDbDictionary
280
     1
281
     1
  3
ACAD_XREC_ROUNDTRIP
360
246
  0
DICTIONARY
  5
24D
330
36
100
AcDbDictionary
280
     1
281
     1
  3
ACAD_XREC_ROUNDTRIP
360
24E
  0
DICTIONARY
  5
255
330
3A
100
AcDbDictionary
280
     1
281
     1
  3
ACAD_XREC_ROUNDTRIP
360
256
  0
DICTIONARY
  5
249
330
34
100
AcDbDictionary
280
     1
281
     1
  3
ACAD_XREC_ROUNDTRIP
360
24A
  0
DICTIONARY
  5
24B
330
35
100
AcDbDictionary
280
     1
281
     1
  3
ACAD_XREC_ROUNDTRIP
360
24C
  0
DICTIONARY
  5
25B
330
3D
100
AcDbDictionary
280
     1
281
     1
  3
ACAD_XREC_ROUNDTRIP
360
25C
  0
DICTIONARY
  5
253
330
39
100
AcDbDictionary
280
     1
281
     1
  3
ACAD_XREC_ROUNDTRIP
360
254
  0
DICTIONARY
  5
237
330
2B
100
AcDbDictionary
280
     1
281
     1
  3
ACAD_XREC_ROUNDTRIP
360
238
  0
DICTIONARY
  5
239
330
2C
100
AcDbDictionary
280
     1
281
     1
  3
ACAD_XREC_ROUNDTRIP
360
23A
  0
DICTIONARY
  5
23B
330
2D
100
AcDbDictionary
280
     1
281
     1
  3
ACAD_XREC_ROUNDTRIP
360
23C
  0
DICTIONARY
  5
23D
330
2E
100
AcDbDictionary
280
     1
281
     1
  3
ACAD_XREC_ROUNDTRIP
360
23E
  0
DICTIONARY
  5
243
330
31
100
AcDbDictionary
280
     1
281
     1
  3
ACAD_XREC_ROUNDTRIP
360
244
  0
DICTIONARY
  5
257
330
3B
100
AcDbDictionary
280
     1
281
     1
  3
ACAD_XREC_ROUNDTRIP
360
258
  0
DICTIONARY
  5
251
330
38
100
AcDbDictionary
280
     1
281
     1
  3
ACAD_XREC_ROUNDTRIP
360
252
  0
DICTIONARY
  5
259
330
3C
100
AcDbDictionary
280
     1
281
     1
  3
ACAD_XREC_ROUNDTRIP
360
25A
  0
DICTIONARY
  5
247
330
33
100
AcDbDictionary
280
     1
281
     1
  3
ACAD_XREC_ROUNDTRIP
360
248
  0
DICTIONARY
  5
265
330
42
100
AcDbDictionary
280
     1
281
     1
  3
ACAD_XREC_ROUNDTRIP
360
266
  0
DICTIONARY
  5
263
330
41
100
AcDbDictionary
280
     1
281
     1
  3
ACAD_XREC_ROUNDTRIP
360
264
  0
DICTIONARY
  5
25D
330
3E
100
AcDbDictionary
280
     1
281
     1
  3
ACAD_XREC_ROUNDTRIP
360
25E
  0
DICTIONARY
  5
25F
330
3F
100
AcDbDictionary
280
     1
281
     1
  3
ACAD_XREC_ROUNDTRIP
360
260
  0
DICTIONARY
  5
24F
330
37
100
AcDbDictionary
280
     1
281
     1
  3
ACAD_XREC_ROUNDTRIP
360
250
  0
DICTIONARY
  5
241
330
30
100
AcDbDictionary
280
     1
281
     1
  3
ACAD_XREC_ROUNDTRIP
360
242
  0
DICTIONARY
  5
261
330
40
100
AcDbDictionary
280
     1
281
     1
  3
ACAD_XREC_ROUNDTRIP
360
262
  0
XRECORD
  5
26A
102
{ACAD_REACTORS
330
269
102
}
330
269
100
AcDbXrecord
280
     1
102
MATERIAL
148
0.0
149
0.0
149
0.0
 93
        0
 94
      127
282
     0
 72
     1
 77
     1
171
     1
175
     1
179
     1
273
     0
  0
XRECORD
  5
268
102
{ACAD_REACTORS
330
267
102
}
330
267
100
AcDbXrecord
280
     1
102
MATERIAL
148
0.0
149
0.0
149
0.0
 93
        0
 94
      127
282
     0
 72
     1
 77
     1
171
     1
175
     1
179
     1
273
     0
  0
XRECORD
  5
26C
102
{ACAD_REACTORS
330
26B
102
}
330
26B
100
AcDbXrecord
280
     1
102
MATERIAL
148
0.0
149
0.0
149
0.0
 93
        0
 94
      127
282
     0
 72
     1
 77
     1
171
     1
175
     1
179
     1
273
     0
  0
XRECORD
  5
240
102
{ACAD_REACTORS
330
23F
102
}
330
23F
100
AcDbXrecord
280
     1
102
RTVSPropertyOp0
 70
     1
102
RTVSPropertyOp1
 70
     1
102
RTVSPropertyOp2
 70
     1
102
RTVSPropertyOp3
 70
     1
102
RTVSPropertyOp4
 70
     1
102
RTVSPropertyOp5
 70
     1
102
RTVSPropertyOp6
 70
     1
102
RTVSPropertyOp7
 70
     1
102
RTVSPropertyOp8
 70
     1
102
RTVSPropertyOp9
 70
     1
102
RTVSPropertyOp10
 70
     1
102
RTVSPropertyOp11
 70
     1
102
RTVSPropertyOp12
 70
     1
102
RTVSPropertyOp13
 70
     1
102
RTVSPropertyOp14
 70
     1
102
RTVSPropertyOp15
 70
     1
102
RTVSPropertyOp16
 70
     1
102
RTVSPropertyOp17
 70
     1
102
RTVSPropertyOp18
 70
     1
102
RTVSPropertyOp19
 70
     1
102
RTVSPropertyOp20
 70
     1
102
RTVSPropertyOp21
 70
     1
102
RTVSPropertyOp22
 70
     1
102
RTVSPropertyOp23
 70
     1
102
RTVSPropertyOp24
 70
     1
102
RTVSPropertyOp25
 70
     1
102
RTVSPropertyOp26
 70
     1
102
RTVSPropertyOp27
 70
     1
102
RTVSPropertyOp28
 70
     1
102
RTVSPropertyOp29
 70
     1
102
RTVSPropertyOp30
 70
     1
102
RTVSPropertyOp31
 70
     1
102
RTVSPropertyOp32
 70
     1
102
RTVSPropertyOp33
 70
     1
102
RTVSPropertyOp34
 70
     1
102
RTVSPropertyOp35
 70
     1
102
RTVSPropertyOp36
 70
     1
102
RTVSPropertyOp37
 70
     1
102
RTVSPropertyOp38
 70
     1
102
RTVSPropertyOp39
 70
     1
102
RTVSPropertyOp40
 70
     1
102
RTVSPropertyOp41
 70
     1
102
RTVSPropertyOp42
 70
     1
102
RTVSPropertyOp43
 70
     1
102
RTVSPropertyOp44
 70
     1
102
RTVSPropertyOp45
 70
     1
102
RTVSPropertyOp46
 70
     1
102
RTVSPropertyOp47
 70
     1
102
RTVSPropertyOp48
 70
     1
102
RTVSPropertyOp49
 70
     1
102
RTVSPropertyOp50
 70
     1
102
RTVSPropertyOp51
 70
     0
102
RTVSPropertyOp52
 70
     0
102
RTVSPropertyOp53
 70
     1
102
RTVSPropertyOp54
 70
     1
102
RTVSPropertyOp55
 70
     1
102
RTVSPropertyOp56
 70
     1
102
RTVSPropertyOp57
 70
     1
102
RTVSPost2010Prop28
280
     1
102
RTVSPost2010PropOp28
 70
     1
102
RTVSPost2010Prop29
280
     1
102
RTVSPost2010PropOp29
 70
     1
102
RTVSPost2010Prop30
280
     0
102
RTVSPost2010PropOp30
 70
     1
102
RTVSPost2010Prop31
280
     0
102
RTVSPost2010PropOp31
 70
     1
102
RTVSPost2010Prop32
280
     0
102
RTVSPost2010PropOp32
 70
     1
102
RTVSPost2010Prop33
280
     0
102
RTVSPost2010PropOp33
 70
     1
102
RTVSPost2010Prop34
280
     0
102
RTVSPost2010PropOp34
 70
     1
102
RTVSPost2010Prop35
280
     0
102
RTVSPost2010PropOp35
 70
     1
102
RTVSPost2010Prop36
280
     0
102
RTVSPost2010PropOp36
 70
     1
102
RTVSPost2010Prop37
 90
       50
102
RTVSPost2010PropOp37
 70
     1
102
RTVSPost2010Prop38
140
0.0
102
RTVSPost2010PropOp38
 70
     1
102
RTVSPost2010Prop39
140
1.0
102
RTVSPost2010PropOp39
 70
     1
102
RTVSPost2010Prop40
 90
        0
102
RTVSPost2010PropOp40
 70
     1
102
RTVSPost2010Prop41ColorIndex
 90
       18
102
RTVSPost2010Prop41ColorRGB
 90
        0
102
RTVSPost2010PropOp41
 70
     1
102
RTVSPost2010Prop42
 90
       50
102
RTVSPost2010PropOp42
 70
     1
102
RTVSPost2010Prop43
 90
        3
102
RTVSPost2010PropOp43
 70
     1
102
RTVSPost2010Prop44ColorIndex
 90
        5
102
RTVSPost2010Prop44ColorRGB
 90
      255
102
RTVSPost2010PropOp44
 70
     1
102
RTVSPost2010Prop45
280
     0
102
RTVSPost2010PropOp45
 70
     1
102
RTVSPost2010Prop46
 90
       50
102
RTVSPost2010PropOp46
 70
     1
102
RTVSPost2010Prop47
 90
       50
102
RTVSPost2010PropOp47
 70
     1
102
RTVSPost2010Prop48
 90
       50
102
RTVSPost2010PropOp48
 70
     1
102
RTVSPost2010Prop49
280
     0
102
RTVSPost2010PropOp49
 70
     1
102
RTVSPost2010Prop50
 90
       50
102
RTVSPost2010PropOp50
 70
     1
102
RTVSPost2010Prop51ColorIndex
 90
      256
102
RTVSPost2010Prop51ColorRGB
 90
-16777216
102
RTVSPost2010PropOp51
 70
     0
102
RTVSPost2010Prop52
140
1.0
102
RTVSPost2010PropOp52
 70
     0
102
RTVSPost2010Prop53
 90
        2
102
RTVSPost2010PropOp53
 70
     1
102
RTVSPost2010Prop54
  1
strokes_ogs.tif
102
RTVSPost2010PropOp54
 70
     1
102
RTVSPost2010Prop55
280
     0
102
RTVSPost2010PropOp55
 70
     1
102
RTVSPost2010Prop56
140
1.0
102
RTVSPost2010PropOp56
 70
     1
102
RTVSPost2010Prop57
140
1.0
102
RTVSPost2010PropOp57
 70
     1
  0
XRECORD
  5
246
102
{ACAD_REACTORS
330
245
102
}
330
245
100
AcDbXrecord
280
     1
102
RTVSPropertyOp0
 70
     1
102
RTVSPropertyOp1
 70
     1
102
RTVSPropertyOp2
 70
     1
102
RTVSPropertyOp3
 70
     1
102
RTVSPropertyOp4
 70
     1
102
RTVSPropertyOp5
 70
     1
102
RTVSPropertyOp6
 70
     1
102
RTVSPropertyOp7
 70
     1
102
RTVSPropertyOp8
 70
     1
102
RTVSPropertyOp9
 70
     1
102
RTVSPropertyOp10
 70
     1
102
RTVSPropertyOp11
 70
     1
102
RTVSPropertyOp12
 70
     1
102
RTVSPropertyOp13
 70
     1
102
RTVSPropertyOp14
 70
     1
102
RTVSPropertyOp15
 70
     1
102
RTVSPropertyOp16
 70
     1
102
RTVSPropertyOp17
 70
     1
102
RTVSPropertyOp18
 70
     1
102
RTVSPropertyOp19
 70
     1
102
RTVSPropertyOp20
 70
     1
102
RTVSPropertyOp21
 70
     1
102
RTVSPropertyOp22
 70
     1
102
RTVSPropertyOp23
 70
     1
102
RTVSPropertyOp24
 70
     1
102
RTVSPropertyOp25
 70
     1
102
RTVSPropertyOp26
 70
     1
102
RTVSPropertyOp27
 70
     1
102
RTVSPropertyOp28
 70
     1
102
RTVSPropertyOp29
 70
     1
102
RTVSPropertyOp30
 70
     1
102
RTVSPropertyOp31
 70
     1
102
RTVSPropertyOp32
 70
     1
102
RTVSPropertyOp33
 70
     1
102
RTVSPropertyOp34
 70
     1
102
RTVSPropertyOp35
 70
     1
102
RTVSPropertyOp36
 70
     1
102
RTVSPropertyOp37
 70
     1
102
RTVSPropertyOp38
 70
     1
102
RTVSPropertyOp39
 70
     1
102
RTVSPropertyOp40
 70
     1
102
RTVSPropertyOp41
 70
     1
102
RTVSPropertyOp42
 70
     1
102
RTVSPropertyOp43
 70
     1
102
RTVSPropertyOp44
 70
     1
102
RTVSPropertyOp45
 70
     1
102
RTVSPropertyOp46
 70
     1
102
RTVSPropertyOp47
 70
     1
102
RTVSPropertyOp48
 70
     1
102
RTVSPropertyOp49
 70
     1
102
RTVSPropertyOp50
 70
     1
102
RTVSPropertyOp51
 70
     0
102
RTVSPropertyOp52
 70
     0
102
RTVSPropertyOp53
 70
     1
102
RTVSPropertyOp54
 70
     1
102
RTVSPropertyOp55
 70
     1
102
RTVSPropertyOp56
 70
     1
102
RTVSPropertyOp57
 70
     1
102
RTVSPost2010Prop28
280
     0
102
RTVSPost2010PropOp28
 70
     1
102
RTVSPost2010Prop29
280
     1
102
RTVSPost2010PropOp29
 70
     1
102
RTVSPost2010Prop30
280
     1
102
RTVSPost2010PropOp30
 70
     1
102
RTVSPost2010Prop31
280
     0
102
RTVSPost2010PropOp31
 70
     1
102
RTVSPost2010Prop32
280
     0
102
RTVSPost2010PropOp32
 70
     1
102
RTVSPost2010Prop33
280
     0
102
RTVSPost2010PropOp33
 70
     1
102
RTVSPost2010Prop34
280
     0
102
RTVSPost2010PropOp34
 70
     1
102
RTVSPost2010Prop35
280
     0
102
RTVSPost2010PropOp35
 70
     1
102
RTVSPost2010Prop36
280
     0
102
RTVSPost2010PropOp36
 70
     1
102
RTVSPost2010Prop37
 90
       50
102
RTVSPost2010PropOp37
 70
     1
102
RTVSPost2010Prop38
140
0.0
102
RTVSPost2010PropOp38
 70
     1
102
RTVSPost2010Prop39
140
1.0
102
RTVSPost2010PropOp39
 70
     1
102
RTVSPost2010Prop40
 90
        0
102
RTVSPost2010PropOp40
 70
     1
102
RTVSPost2010Prop41ColorIndex
 90
       18
102
RTVSPost2010Prop41ColorRGB
 90
        0
102
RTVSPost2010PropOp41
 70
     1
102
RTVSPost2010Prop42
 90
       50
102
RTVSPost2010PropOp42
 70
     1
102
RTVSPost2010Prop43
 90
        3
102
RTVSPost2010PropOp43
 70
     1
102
RTVSPost2010Prop44ColorIndex
 90
        5
102
RTVSPost2010Prop44ColorRGB
 90
      255
102
RTVSPost2010PropOp44
 70
     1
102
RTVSPost2010Prop45
280
     0
102
RTVSPost2010PropOp45
 70
     1
102
RTVSPost2010Prop46
 90
       50
102
RTVSPost2010PropOp46
 70
     1
102
RTVSPost2010Prop47
 90
       50
102
RTVSPost2010PropOp47
 70
     1
102
RTVSPost2010Prop48
 90
       50
102
RTVSPost2010PropOp48
 70
     1
102
RTVSPost2010Prop49
280
     0
102
RTVSPost2010PropOp49
 70
     1
102
RTVSPost2010Prop50
 90
       50
102
RTVSPost2010PropOp50
 70
     1
102
RTVSPost2010Prop51ColorIndex
 90
      256
102
RTVSPost2010Prop51ColorRGB
 90
-16777216
102
RTVSPost2010PropOp51
 70
     0
102
RTVSPost2010Prop52
140
1.0
102
RTVSPost2010PropOp52
 70
     0
102
RTVSPost2010Prop53
 90
        2
102
RTVSPost2010PropOp53
 70
     1
102
RTVSPost2010Prop54
  1
strokes_ogs.tif
102
RTVSPost2010PropOp54
 70
     1
102
RTVSPost2010Prop55
280
     0
102
RTVSPost2010PropOp55
 70
     1
102
RTVSPost2010Prop56
140
1.0
102
RTVSPost2010PropOp56
 70
     1
102
RTVSPost2010Prop57
140
1.0
102
RTVSPost2010PropOp57
 70
     1
  0
XRECORD
  5
24E
102
{ACAD_REACTORS
330
24D
102
}
330
24D
100
AcDbXrecord
280
     1
102
RTVSPropertyOp0
 70
     1
102
RTVSPropertyOp1
 70
     1
102
RTVSPropertyOp2
 70
     1
102
RTVSPropertyOp3
 70
     1
102
RTVSPropertyOp4
 70
     1
102
RTVSPropertyOp5
 70
     1
102
RTVSPropertyOp6
 70
     1
102
RTVSPropertyOp7
 70
     1
102
RTVSPropertyOp8
 70
     1
102
RTVSPropertyOp9
 70
     1
102
RTVSPropertyOp10
 70
     1
102
RTVSPropertyOp11
 70
     1
102
RTVSPropertyOp12
 70
     1
102
RTVSPropertyOp13
 70
     1
102
RTVSPropertyOp14
 70
     1
102
RTVSPropertyOp15
 70
     1
102
RTVSPropertyOp16
 70
     1
102
RTVSPropertyOp17
 70
     1
102
RTVSPropertyOp18
 70
     1
102
RTVSPropertyOp19
 70
     1
102
RTVSPropertyOp20
 70
     1
102
RTVSPropertyOp21
 70
     1
102
RTVSPropertyOp22
 70
     1
102
RTVSPropertyOp23
 70
     1
102
RTVSPropertyOp24
 70
     1
102
RTVSPropertyOp25
 70
     1
102
RTVSPropertyOp26
 70
     1
102
RTVSPropertyOp27
 70
     1
102
RTVSPropertyOp28
 70
     1
102
RTVSPropertyOp29
 70
     1
102
RTVSPropertyOp30
 70
     1
102
RTVSPropertyOp31
 70
     1
102
RTVSPropertyOp32
 70
     1
102
RTVSPropertyOp33
 70
     1
102
RTVSPropertyOp34
 70
     1
102
RTVSPropertyOp35
 70
     1
102
RTVSPropertyOp36
 70
     1
102
RTVSPropertyOp37
 70
     1
102
RTVSPropertyOp38
 70
     1
102
RTVSPropertyOp39
 70
     1
102
RTVSPropertyOp40
 70
     1
102
RTVSPropertyOp41
 70
     1
102
RTVSPropertyOp42
 70
     1
102
RTVSPropertyOp43
 70
     1
102
RTVSPropertyOp44
 70
     1
102
RTVSPropertyOp45
 70
     1
102
RTVSPropertyOp46
 70
     1
102
RTVSPropertyOp47
 70
     1
102
RTVSPropertyOp48
 70
     1
102
RTVSPropertyOp49
 70
     1
102
RTVSPropertyOp50
 70
     1
102
RTVSPropertyOp51
 70
     0
102
RTVSPropertyOp52
 70
     0
102
RTVSPropertyOp53
 70
     1
102
RTVSPropertyOp54
 70
     1
102
RTVSPropertyOp55
 70
     1
102
RTVSPropertyOp56
 70
     1
102
RTVSPropertyOp57
 70
     1
102
RTVSPost2010Prop28
280
     0
102
RTVSPost2010PropOp28
 70
     1
102
RTVSPost2010Prop29
280
     1
102
RTVSPost2010PropOp29
 70
     1
102
RTVSPost2010Prop30
280
     1
102
RTVSPost2010PropOp30
 70
     1
102
RTVSPost2010Prop31
280
     0
102
RTVSPost2010PropOp31
 70
     1
102
RTVSPost2010Prop32
280
     0
102
RTVSPost2010PropOp32
 70
     1
102
RTVSPost2010Prop33
280
     0
102
RTVSPost2010PropOp33
 70
     1
102
RTVSPost2010Prop34
280
     0
102
RTVSPost2010PropOp34
 70
     1
102
RTVSPost2010Prop35
280
     0
102
RTVSPost2010PropOp35
 70
     1
102
RTVSPost2010Prop36
280
     0
102
RTVSPost2010PropOp36
 70
     1
102
RTVSPost2010Prop37
 90
       50
102
RTVSPost2010PropOp37
 70
     1
102
RTVSPost2010Prop38
140
0.0
102
RTVSPost2010PropOp38
 70
     1
102
RTVSPost2010Prop39
140
1.0
102
RTVSPost2010PropOp39
 70
     1
102
RTVSPost2010Prop40
 90
        0
102
RTVSPost2010PropOp40
 70
     1
102
RTVSPost2010Prop41ColorIndex
 90
       18
102
RTVSPost2010Prop41ColorRGB
 90
        0
102
RTVSPost2010PropOp41
 70
     1
102
RTVSPost2010Prop42
 90
       50
102
RTVSPost2010PropOp42
 70
     1
102
RTVSPost2010Prop43
 90
        3
102
RTVSPost2010PropOp43
 70
     1
102
RTVSPost2010Prop44ColorIndex
 90
        5
102
RTVSPost2010Prop44ColorRGB
 90
      255
102
RTVSPost2010PropOp44
 70
     1
102
RTVSPost2010Prop45
280
     0
102
RTVSPost2010PropOp45
 70
     1
102
RTVSPost2010Prop46
 90
       50
102
RTVSPost2010PropOp46
 70
     1
102
RTVSPost2010Prop47
 90
       50
102
RTVSPost2010PropOp47
 70
     1
102
RTVSPost2010Prop48
 90
       50
102
RTVSPost2010PropOp48
 70
     1
102
RTVSPost2010Prop49
280
     0
102
RTVSPost2010PropOp49
 70
     1
102
RTVSPost2010Prop50
 90
       50
102
RTVSPost2010PropOp50
 70
     1
102
RTVSPost2010Prop51ColorIndex
 90
      256
102
RTVSPost2010Prop51ColorRGB
 90
-16777216
102
RTVSPost2010PropOp51
 70
     0
102
RTVSPost2010Prop52
140
1.0
102
RTVSPost2010PropOp52
 70
     0
102
RTVSPost2010Prop53
 90
        2
102
RTVSPost2010PropOp53
 70
     1
102
RTVSPost2010Prop54
  1
strokes_ogs.tif
102
RTVSPost2010PropOp54
 70
     1
102
RTVSPost2010Prop55
280
     0
102
RTVSPost2010PropOp55
 70
     1
102
RTVSPost2010Prop56
140
1.0
102
RTVSPost2010PropOp56
 70
     1
102
RTVSPost2010Prop57
140
1.0
102
RTVSPost2010PropOp57
 70
     1
  0
XRECORD
  5
256
102
{ACAD_REACTORS
330
255
102
}
330
255
100
AcDbXrecord
280
     1
102
RTVSPropertyOp0
 70
     1
102
RTVSPropertyOp1
 70
     1
102
RTVSPropertyOp2
 70
     1
102
RTVSPropertyOp3
 70
     1
102
RTVSPropertyOp4
 70
     1
102
RTVSPropertyOp5
 70
     1
102
RTVSPropertyOp6
 70
     1
102
RTVSPropertyOp7
 70
     1
102
RTVSPropertyOp8
 70
     1
102
RTVSPropertyOp9
 70
     1
102
RTVSPropertyOp10
 70
     1
102
RTVSPropertyOp11
 70
     1
102
RTVSPropertyOp12
 70
     1
102
RTVSPropertyOp13
 70
     1
102
RTVSPropertyOp14
 70
     1
102
RTVSPropertyOp15
 70
     1
102
RTVSPropertyOp16
 70
     1
102
RTVSPropertyOp17
 70
     1
102
RTVSPropertyOp18
 70
     1
102
RTVSPropertyOp19
 70
     1
102
RTVSPropertyOp20
 70
     1
102
RTVSPropertyOp21
 70
     1
102
RTVSPropertyOp22
 70
     1
102
RTVSPropertyOp23
 70
     1
102
RTVSPropertyOp24
 70
     1
102
RTVSPropertyOp25
 70
     1
102
RTVSPropertyOp26
 70
     1
102
RTVSPropertyOp27
 70
     1
102
RTVSPropertyOp28
 70
     1
102
RTVSPropertyOp29
 70
     1
102
RTVSPropertyOp30
 70
     1
102
RTVSPropertyOp31
 70
     1
102
RTVSPropertyOp32
 70
     1
102
RTVSPropertyOp33
 70
     1
102
RTVSPropertyOp34
 70
     1
102
RTVSPropertyOp35
 70
     1
102
RTVSPropertyOp36
 70
     1
102
RTVSPropertyOp37
 70
     1
102
RTVSPropertyOp38
 70
     1
102
RTVSPropertyOp39
 70
     1
102
RTVSPropertyOp40
 70
     1
102
RTVSPropertyOp41
 70
     1
102
RTVSPropertyOp42
 70
     1
102
RTVSPropertyOp43
 70
     1
102
RTVSPropertyOp44
 70
     1
102
RTVSPropertyOp45
 70
     1
102
RTVSPropertyOp46
 70
     1
102
RTVSPropertyOp47
 70
     1
102
RTVSPropertyOp48
 70
     1
102
RTVSPropertyOp49
 70
     1
102
RTVSPropertyOp50
 70
     1
102
RTVSPropertyOp51
 70
     0
102
RTVSPropertyOp52
 70
     0
102
RTVSPropertyOp53
 70
     1
102
RTVSPropertyOp54
 70
     1
102
RTVSPropertyOp55
 70
     1
102
RTVSPropertyOp56
 70
     1
102
RTVSPropertyOp57
 70
     1
102
RTVSPost2010Prop28
280
     0
102
RTVSPost2010PropOp28
 70
     1
102
RTVSPost2010Prop29
280
     1
102
RTVSPost2010PropOp29
 70
     1
102
RTVSPost2010Prop30
280
     1
102
RTVSPost2010PropOp30
 70
     1
102
RTVSPost2010Prop31
280
     0
102
RTVSPost2010PropOp31
 70
     1
102
RTVSPost2010Prop32
280
     0
102
RTVSPost2010PropOp32
 70
     1
102
RTVSPost2010Prop33
280
     0
102
RTVSPost2010PropOp33
 70
     1
102
RTVSPost2010Prop34
280
     0
102
RTVSPost2010PropOp34
 70
     1
102
RTVSPost2010Prop35
280
     0
102
RTVSPost2010PropOp35
 70
     1
102
RTVSPost2010Prop36
280
     0
102
RTVSPost2010PropOp36
 70
     1
102
RTVSPost2010Prop37
 90
       50
102
RTVSPost2010PropOp37
 70
     1
102
RTVSPost2010Prop38
140
0.0
102
RTVSPost2010PropOp38
 70
     1
102
RTVSPost2010Prop39
140
1.0
102
RTVSPost2010PropOp39
 70
     1
102
RTVSPost2010Prop40
 90
        0
102
RTVSPost2010PropOp40
 70
     1
102
RTVSPost2010Prop41ColorIndex
 90
       18
102
RTVSPost2010Prop41ColorRGB
 90
        0
102
RTVSPost2010PropOp41
 70
     1
102
RTVSPost2010Prop42
 90
       50
102
RTVSPost2010PropOp42
 70
     1
102
RTVSPost2010Prop43
 90
        3
102
RTVSPost2010PropOp43
 70
     1
102
RTVSPost2010Prop44ColorIndex
 90
        5
102
RTVSPost2010Prop44ColorRGB
 90
      255
102
RTVSPost2010PropOp44
 70
     1
102
RTVSPost2010Prop45
280
     0
102
RTVSPost2010PropOp45
 70
     1
102
RTVSPost2010Prop46
 90
       50
102
RTVSPost2010PropOp46
 70
     1
102
RTVSPost2010Prop47
 90
       50
102
RTVSPost2010PropOp47
 70
     1
102
RTVSPost2010Prop48
 90
       50
102
RTVSPost2010PropOp48
 70
     1
102
RTVSPost2010Prop49
280
     0
102
RTVSPost2010PropOp49
 70
     1
102
RTVSPost2010Prop50
 90
       50
102
RTVSPost2010PropOp50
 70
     1
102
RTVSPost2010Prop51ColorIndex
 90
      256
102
RTVSPost2010Prop51ColorRGB
 90
-16777216
102
RTVSPost2010PropOp51
 70
     0
102
RTVSPost2010Prop52
140
1.0
102
RTVSPost2010PropOp52
 70
     0
102
RTVSPost2010Prop53
 90
        2
102
RTVSPost2010PropOp53
 70
     1
102
RTVSPost2010Prop54
  1
strokes_ogs.tif
102
RTVSPost2010PropOp54
 70
     1
102
RTVSPost2010Prop55
280
     0
102
RTVSPost2010PropOp55
 70
     1
102
RTVSPost2010Prop56
140
1.0
102
RTVSPost2010PropOp56
 70
     1
102
RTVSPost2010Prop57
140
1.0
102
RTVSPost2010PropOp57
 70
     1
  0
XRECORD
  5
24A
102
{ACAD_REACTORS
330
249
102
}
330
249
100
AcDbXrecord
280
     1
102
RTVSPropertyOp0
 70
     1
102
RTVSPropertyOp1
 70
     1
102
RTVSPropertyOp2
 70
     1
102
RTVSPropertyOp3
 70
     1
102
RTVSPropertyOp4
 70
     1
102
RTVSPropertyOp5
 70
     1
102
RTVSPropertyOp6
 70
     1
102
RTVSPropertyOp7
 70
     1
102
RTVSPropertyOp8
 70
     1
102
RTVSPropertyOp9
 70
     1
102
RTVSPropertyOp10
 70
     1
102
RTVSPropertyOp11
 70
     1
102
RTVSPropertyOp12
 70
     1
102
RTVSPropertyOp13
 70
     1
102
RTVSPropertyOp14
 70
     1
102
RTVSPropertyOp15
 70
     1
102
RTVSPropertyOp16
 70
     1
102
RTVSPropertyOp17
 70
     1
102
RTVSPropertyOp18
 70
     1
102
RTVSPropertyOp19
 70
     1
102
RTVSPropertyOp20
 70
     1
102
RTVSPropertyOp21
 70
     1
102
RTVSPropertyOp22
 70
     1
102
RTVSPropertyOp23
 70
     1
102
RTVSPropertyOp24
 70
     1
102
RTVSPropertyOp25
 70
     1
102
RTVSPropertyOp26
 70
     1
102
RTVSPropertyOp27
 70
     1
102
RTVSPropertyOp28
 70
     1
102
RTVSPropertyOp29
 70
     1
102
RTVSPropertyOp30
 70
     1
102
RTVSPropertyOp31
 70
     1
102
RTVSPropertyOp32
 70
     1
102
RTVSPropertyOp33
 70
     1
102
RTVSPropertyOp34
 70
     1
102
RTVSPropertyOp35
 70
     1
102
RTVSPropertyOp36
 70
     1
102
RTVSPropertyOp37
 70
     1
102
RTVSPropertyOp38
 70
     1
102
RTVSPropertyOp39
 70
     1
102
RTVSPropertyOp40
 70
     1
102
RTVSPropertyOp41
 70
     1
102
RTVSPropertyOp42
 70
     1
102
RTVSPropertyOp43
 70
     1
102
RTVSPropertyOp44
 70
     1
102
RTVSPropertyOp45
 70
     1
102
RTVSPropertyOp46
 70
     1
102
RTVSPropertyOp47
 70
     1
102
RTVSPropertyOp48
 70
     1
102
RTVSPropertyOp49
 70
     1
102
RTVSPropertyOp50
 70
     1
102
RTVSPropertyOp51
 70
     0
102
RTVSPropertyOp52
 70
     0
102
RTVSPropertyOp53
 70
     1
102
RTVSPropertyOp54
 70
     1
102
RTVSPropertyOp55
 70
     1
102
RTVSPropertyOp56
 70
     1
102
RTVSPropertyOp57
 70
     1
102
RTVSPost2010Prop28
280
     0
102
RTVSPost2010PropOp28
 70
     1
102
RTVSPost2010Prop29
280
     1
102
RTVSPost2010PropOp29
 70
     1
102
RTVSPost2010Prop30
280
     1
102
RTVSPost2010PropOp30
 70
     1
102
RTVSPost2010Prop31
280
     0
102
RTVSPost2010PropOp31
 70
     1
102
RTVSPost2010Prop32
280
     0
102
RTVSPost2010PropOp32
 70
     1
102
RTVSPost2010Prop33
280
     0
102
RTVSPost2010PropOp33
 70
     1
102
RTVSPost2010Prop34
280
     0
102
RTVSPost2010PropOp34
 70
     1
102
RTVSPost2010Prop35
280
     0
102
RTVSPost2010PropOp35
 70
     1
102
RTVSPost2010Prop36
280
     0
102
RTVSPost2010PropOp36
 70
     1
102
RTVSPost2010Prop37
 90
       50
102
RTVSPost2010PropOp37
 70
     1
102
RTVSPost2010Prop38
140
0.0
102
RTVSPost2010PropOp38
 70
     1
102
RTVSPost2010Prop39
140
1.0
102
RTVSPost2010PropOp39
 70
     1
102
RTVSPost2010Prop40
 90
        0
102
RTVSPost2010PropOp40
 70
     1
102
RTVSPost2010Prop41ColorIndex
 90
       18
102
RTVSPost2010Prop41ColorRGB
 90
        0
102
RTVSPost2010PropOp41
 70
     1
102
RTVSPost2010Prop42
 90
       50
102
RTVSPost2010PropOp42
 70
     1
102
RTVSPost2010Prop43
 90
        3
102
RTVSPost2010PropOp43
 70
     1
102
RTVSPost2010Prop44ColorIndex
 90
        5
102
RTVSPost2010Prop44ColorRGB
 90
      255
102
RTVSPost2010PropOp44
 70
     1
102
RTVSPost2010Prop45
280
     0
102
RTVSPost2010PropOp45
 70
     1
102
RTVSPost2010Prop46
 90
       50
102
RTVSPost2010PropOp46
 70
     1
102
RTVSPost2010Prop47
 90
       50
102
RTVSPost2010PropOp47
 70
     1
102
RTVSPost2010Prop48
 90
       50
102
RTVSPost2010PropOp48
 70
     1
102
RTVSPost2010Prop49
280
     0
102
RTVSPost2010PropOp49
 70
     1
102
RTVSPost2010Prop50
 90
       50
102
RTVSPost2010PropOp50
 70
     1
102
RTVSPost2010Prop51ColorIndex
 90
      256
102
RTVSPost2010Prop51ColorRGB
 90
-16777216
102
RTVSPost2010PropOp51
 70
     0
102
RTVSPost2010Prop52
140
1.0
102
RTVSPost2010PropOp52
 70
     0
102
RTVSPost2010Prop53
 90
        2
102
RTVSPost2010PropOp53
 70
     1
102
RTVSPost2010Prop54
  1
strokes_ogs.tif
102
RTVSPost2010PropOp54
 70
     1
102
RTVSPost2010Prop55
280
     0
102
RTVSPost2010PropOp55
 70
     1
102
RTVSPost2010Prop56
140
1.0
102
RTVSPost2010PropOp56
 70
     1
102
RTVSPost2010Prop57
140
1.0
102
RTVSPost2010PropOp57
 70
     1
  0
XRECORD
  5
24C
102
{ACAD_REACTORS
330
24B
102
}
330
24B
100
AcDbXrecord
280
     1
102
RTVSPropertyOp0
 70
     1
102
RTVSPropertyOp1
 70
     1
102
RTVSPropertyOp2
 70
     1
102
RTVSPropertyOp3
 70
     1
102
RTVSPropertyOp4
 70
     1
102
RTVSPropertyOp5
 70
     1
102
RTVSPropertyOp6
 70
     1
102
RTVSPropertyOp7
 70
     1
102
RTVSPropertyOp8
 70
     1
102
RTVSPropertyOp9
 70
     1
102
RTVSPropertyOp10
 70
     1
102
RTVSPropertyOp11
 70
     1
102
RTVSPropertyOp12
 70
     1
102
RTVSPropertyOp13
 70
     1
102
RTVSPropertyOp14
 70
     1
102
RTVSPropertyOp15
 70
     1
102
RTVSPropertyOp16
 70
     1
102
RTVSPropertyOp17
 70
     1
102
RTVSPropertyOp18
 70
     1
102
RTVSPropertyOp19
 70
     1
102
RTVSPropertyOp20
 70
     1
102
RTVSPropertyOp21
 70
     1
102
RTVSPropertyOp22
 70
     1
102
RTVSPropertyOp23
 70
     1
102
RTVSPropertyOp24
 70
     1
102
RTVSPropertyOp25
 70
     1
102
RTVSPropertyOp26
 70
     1
102
RTVSPropertyOp27
 70
     1
102
RTVSPropertyOp28
 70
     1
102
RTVSPropertyOp29
 70
     1
102
RTVSPropertyOp30
 70
     1
102
RTVSPropertyOp31
 70
     1
102
RTVSPropertyOp32
 70
     1
102
RTVSPropertyOp33
 70
     1
102
RTVSPropertyOp34
 70
     1
102
RTVSPropertyOp35
 70
     1
102
RTVSPropertyOp36
 70
     1
102
RTVSPropertyOp37
 70
     1
102
RTVSPropertyOp38
 70
     1
102
RTVSPropertyOp39
 70
     1
102
RTVSPropertyOp40
 70
     1
102
RTVSPropertyOp41
 70
     1
102
RTVSPropertyOp42
 70
     1
102
RTVSPropertyOp43
 70
     1
102
RTVSPropertyOp44
 70
     1
102
RTVSPropertyOp45
 70
     1
102
RTVSPropertyOp46
 70
     1
102
RTVSPropertyOp47
 70
     1
102
RTVSPropertyOp48
 70
     1
102
RTVSPropertyOp49
 70
     1
102
RTVSPropertyOp50
 70
     1
102
RTVSPropertyOp51
 70
     0
102
RTVSPropertyOp52
 70
     0
102
RTVSPropertyOp53
 70
     1
102
RTVSPropertyOp54
 70
     1
102
RTVSPropertyOp55
 70
     1
102
RTVSPropertyOp56
 70
     1
102
RTVSPropertyOp57
 70
     1
102
RTVSPost2010Prop28
280
     0
102
RTVSPost2010PropOp28
 70
     1
102
RTVSPost2010Prop29
280
     1
102
RTVSPost2010PropOp29
 70
     1
102
RTVSPost2010Prop30
280
     1
102
RTVSPost2010PropOp30
 70
     1
102
RTVSPost2010Prop31
280
     0
102
RTVSPost2010PropOp31
 70
     1
102
RTVSPost2010Prop32
280
     0
102
RTVSPost2010PropOp32
 70
     1
102
RTVSPost2010Prop33
280
     0
102
RTVSPost2010PropOp33
 70
     1
102
RTVSPost2010Prop34
280
     0
102
RTVSPost2010PropOp34
 70
     1
102
RTVSPost2010Prop35
280
     0
102
RTVSPost2010PropOp35
 70
     1
102
RTVSPost2010Prop36
280
     0
102
RTVSPost2010PropOp36
 70
     1
102
RTVSPost2010Prop37
 90
       50
102
RTVSPost2010PropOp37
 70
     1
102
RTVSPost2010Prop38
140
0.0
102
RTVSPost2010PropOp38
 70
     1
102
RTVSPost2010Prop39
140
1.0
102
RTVSPost2010PropOp39
 70
     1
102
RTVSPost2010Prop40
 90
        0
102
RTVSPost2010PropOp40
 70
     1
102
RTVSPost2010Prop41ColorIndex
 90
       18
102
RTVSPost2010Prop41ColorRGB
 90
        0
102
RTVSPost2010PropOp41
 70
     1
102
RTVSPost2010Prop42
 90
       50
102
RTVSPost2010PropOp42
 70
     1
102
RTVSPost2010Prop43
 90
        3
102
RTVSPost2010PropOp43
 70
     1
102
RTVSPost2010Prop44ColorIndex
 90
        5
102
RTVSPost2010Prop44ColorRGB
 90
      255
102
RTVSPost2010PropOp44
 70
     1
102
RTVSPost2010Prop45
280
     0
102
RTVSPost2010PropOp45
 70
     1
102
RTVSPost2010Prop46
 90
       50
102
RTVSPost2010PropOp46
 70
     1
102
RTVSPost2010Prop47
 90
       50
102
RTVSPost2010PropOp47
 70
     1
102
RTVSPost2010Prop48
 90
       50
102
RTVSPost2010PropOp48
 70
     1
102
RTVSPost2010Prop49
280
     0
102
RTVSPost2010PropOp49
 70
     1
102
RTVSPost2010Prop50
 90
       50
102
RTVSPost2010PropOp50
 70
     1
102
RTVSPost2010Prop51ColorIndex
 90
      256
102
RTVSPost2010Prop51ColorRGB
 90
-16777216
102
RTVSPost2010PropOp51
 70
     0
102
RTVSPost2010Prop52
140
1.0
102
RTVSPost2010PropOp52
 70
     0
102
RTVSPost2010Prop53
 90
        2
102
RTVSPost2010PropOp53
 70
     1
102
RTVSPost2010Prop54
  1
strokes_ogs.tif
102
RTVSPost2010PropOp54
 70
     1
102
RTVSPost2010Prop55
280
     0
102
RTVSPost2010PropOp55
 70
     1
102
RTVSPost2010Prop56
140
1.0
102
RTVSPost2010PropOp56
 70
     1
102
RTVSPost2010Prop57
140
1.0
102
RTVSPost2010PropOp57
 70
     1
  0
XRECORD
  5
25C
102
{ACAD_REACTORS
330
25B
102
}
330
25B
100
AcDbXrecord
280
     1
102
RTVSPropertyOp0
 70
     0
102
RTVSPropertyOp1
 70
     0
102
RTVSPropertyOp2
 70
     0
102
RTVSPropertyOp3
 70
     0
102
RTVSPropertyOp4
 70
     0
102
RTVSPropertyOp5
 70
     0
102
RTVSPropertyOp6
 70
     0
102
RTVSPropertyOp7
 70
     0
102
RTVSPropertyOp8
 70
     0
102
RTVSPropertyOp9
 70
     0
102
RTVSPropertyOp10
 70
     0
102
RTVSPropertyOp11
 70
     0
102
RTVSPropertyOp12
 70
     0
102
RTVSPropertyOp13
 70
     0
102
RTVSPropertyOp14
 70
     2
102
RTVSPropertyOp15
 70
     0
102
RTVSPropertyOp16
 70
     0
102
RTVSPropertyOp17
 70
     0
102
RTVSPropertyOp18
 70
     0
102
RTVSPropertyOp19
 70
     0
102
RTVSPropertyOp20
 70
     0
102
RTVSPropertyOp21
 70
     0
102
RTVSPropertyOp22
 70
     0
102
RTVSPropertyOp23
 70
     0
102
RTVSPropertyOp24
 70
     0
102
RTVSPropertyOp25
 70
     0
102
RTVSPropertyOp26
 70
     0
102
RTVSPropertyOp27
 70
     0
102
RTVSPropertyOp28
 70
     0
102
RTVSPropertyOp29
 70
     0
102
RTVSPropertyOp30
 70
     0
102
RTVSPropertyOp31
 70
     0
102
RTVSPropertyOp32
 70
     0
102
RTVSPropertyOp33
 70
     0
102
RTVSPropertyOp34
 70
     0
102
RTVSPropertyOp35
 70
     0
102
RTVSPropertyOp36
 70
     0
102
RTVSPropertyOp37
 70
     0
102
RTVSPropertyOp38
 70
     0
102
RTVSPropertyOp39
 70
     0
102
RTVSPropertyOp40
 70
     0
102
RTVSPropertyOp41
 70
     0
102
RTVSPropertyOp42
 70
     0
102
RTVSPropertyOp43
 70
     0
102
RTVSPropertyOp44
 70
     0
102
RTVSPropertyOp45
 70
     0
102
RTVSPropertyOp46
 70
     0
102
RTVSPropertyOp47
 70
     0
102
RTVSPropertyOp48
 70
     0
102
RTVSPropertyOp49
 70
     0
102
RTVSPropertyOp50
 70
     0
102
RTVSPropertyOp51
 70
     0
102
RTVSPropertyOp52
 70
     0
102
RTVSPropertyOp53
 70
     0
102
RTVSPropertyOp54
 70
     0
102
RTVSPropertyOp55
 70
     0
102
RTVSPropertyOp56
 70
     0
102
RTVSPropertyOp57
 70
     0
102
RTVSPost2010Prop28
280
     0
102
RTVSPost2010PropOp28
 70
     0
102
RTVSPost2010Prop29
280
     1
102
RTVSPost2010PropOp29
 70
     0
102
RTVSPost2010Prop30
280
     1
102
RTVSPost2010PropOp30
 70
     0
102
RTVSPost2010Prop31
280
     0
102
RTVSPost2010PropOp31
 70
     0
102
RTVSPost2010Prop32
280
     0
102
RTVSPost2010PropOp32
 70
     0
102
RTVSPost2010Prop33
280
     0
102
RTVSPost2010PropOp33
 70
     0
102
RTVSPost2010Prop34
280
     0
102
RTVSPost2010PropOp34
 70
     0
102
RTVSPost2010Prop35
280
     0
102
RTVSPost2010PropOp35
 70
     0
102
RTVSPost2010Prop36
280
     0
102
RTVSPost2010PropOp36
 70
     0
102
RTVSPost2010Prop37
 90
       50
102
RTVSPost2010PropOp37
 70
     0
102
RTVSPost2010Prop38
140
0.0
102
RTVSPost2010PropOp38
 70
     0
102
RTVSPost2010Prop39
140
1.0
102
RTVSPost2010PropOp39
 70
     0
102
RTVSPost2010Prop40
 90
        0
102
RTVSPost2010PropOp40
 70
     0
102
RTVSPost2010Prop41ColorIndex
 90
       18
102
RTVSPost2010Prop41ColorRGB
 90
        0
102
RTVSPost2010PropOp41
 70
     0
102
RTVSPost2010Prop42
 90
       50
102
RTVSPost2010PropOp42
 70
     0
102
RTVSPost2010Prop43
 90
        3
102
RTVSPost2010PropOp43
 70
     0
102
RTVSPost2010Prop44ColorIndex
 90
        5
102
RTVSPost2010Prop44ColorRGB
 90
      255
102
RTVSPost2010PropOp44
 70
     0
102
RTVSPost2010Prop45
280
     0
102
RTVSPost2010PropOp45
 70
     0
102
RTVSPost2010Prop46
 90
       50
102
RTVSPost2010PropOp46
 70
     0
102
RTVSPost2010Prop47
 90
       50
102
RTVSPost2010PropOp47
 70
     0
102
RTVSPost2010Prop48
 90
       50
102
RTVSPost2010PropOp48
 70
     0
102
RTVSPost2010Prop49
280
     0
102
RTVSPost2010PropOp49
 70
     0
102
RTVSPost2010Prop50
 90
       50
102
RTVSPost2010PropOp50
 70
     0
102
RTVSPost2010Prop51ColorIndex
 90
      256
102
RTVSPost2010Prop51ColorRGB
 90
-16777216
102
RTVSPost2010PropOp51
 70
     0
102
RTVSPost2010Prop52
140
1.0
102
RTVSPost2010PropOp52
 70
     0
102
RTVSPost2010Prop53
 90
        2
102
RTVSPost2010PropOp53
 70
     0
102
RTVSPost2010Prop54
  1
strokes_ogs.tif
102
RTVSPost2010PropOp54
 70
     0
102
RTVSPost2010Prop55
280
     0
102
RTVSPost2010PropOp55
 70
     0
102
RTVSPost2010Prop56
140
1.0
102
RTVSPost2010PropOp56
 70
     0
102
RTVSPost2010Prop57
140
1.0
102
RTVSPost2010PropOp57
 70
     0
  0
XRECORD
  5
254
102
{ACAD_REACTORS
330
253
102
}
330
253
100
AcDbXrecord
280
     1
102
RTVSPropertyOp0
 70
     1
102
RTVSPropertyOp1
 70
     1
102
RTVSPropertyOp2
 70
     1
102
RTVSPropertyOp3
 70
     1
102
RTVSPropertyOp4
 70
     1
102
RTVSPropertyOp5
 70
     1
102
RTVSPropertyOp6
 70
     1
102
RTVSPropertyOp7
 70
     1
102
RTVSPropertyOp8
 70
     1
102
RTVSPropertyOp9
 70
     1
102
RTVSPropertyOp10
 70
     1
102
RTVSPropertyOp11
 70
     1
102
RTVSPropertyOp12
 70
     1
102
RTVSPropertyOp13
 70
     1
102
RTVSPropertyOp14
 70
     1
102
RTVSPropertyOp15
 70
     1
102
RTVSPropertyOp16
 70
     1
102
RTVSPropertyOp17
 70
     1
102
RTVSPropertyOp18
 70
     1
102
RTVSPropertyOp19
 70
     1
102
RTVSPropertyOp20
 70
     1
102
RTVSPropertyOp21
 70
     1
102
RTVSPropertyOp22
 70
     1
102
RTVSPropertyOp23
 70
     1
102
RTVSPropertyOp24
 70
     1
102
RTVSPropertyOp25
 70
     1
102
RTVSPropertyOp26
 70
     1
102
RTVSPropertyOp27
 70
     1
102
RTVSPropertyOp28
 70
     1
102
RTVSPropertyOp29
 70
     1
102
RTVSPropertyOp30
 70
     1
102
RTVSPropertyOp31
 70
     1
102
RTVSPropertyOp32
 70
     1
102
RTVSPropertyOp33
 70
     1
102
RTVSPropertyOp34
 70
     1
102
RTVSPropertyOp35
 70
     1
102
RTVSPropertyOp36
 70
     1
102
RTVSPropertyOp37
 70
     1
102
RTVSPropertyOp38
 70
     1
102
RTVSPropertyOp39
 70
     1
102
RTVSPropertyOp40
 70
     1
102
RTVSPropertyOp41
 70
     1
102
RTVSPropertyOp42
 70
     1
102
RTVSPropertyOp43
 70
     1
102
RTVSPropertyOp44
 70
     1
102
RTVSPropertyOp45
 70
     1
102
RTVSPropertyOp46
 70
     1
102
RTVSPropertyOp47
 70
     1
102
RTVSPropertyOp48
 70
     1
102
RTVSPropertyOp49
 70
     1
102
RTVSPropertyOp50
 70
     1
102
RTVSPropertyOp51
 70
     0
102
RTVSPropertyOp52
 70
     0
102
RTVSPropertyOp53
 70
     1
102
RTVSPropertyOp54
 70
     1
102
RTVSPropertyOp55
 70
     1
102
RTVSPropertyOp56
 70
     1
102
RTVSPropertyOp57
 70
     1
102
RTVSPost2010Prop28
280
     0
102
RTVSPost2010PropOp28
 70
     1
102
RTVSPost2010Prop29
280
     1
102
RTVSPost2010PropOp29
 70
     1
102
RTVSPost2010Prop30
280
     1
102
RTVSPost2010PropOp30
 70
     1
102
RTVSPost2010Prop31
280
     0
102
RTVSPost2010PropOp31
 70
     1
102
RTVSPost2010Prop32
280
     0
102
RTVSPost2010PropOp32
 70
     1
102
RTVSPost2010Prop33
280
     0
102
RTVSPost2010PropOp33
 70
     1
102
RTVSPost2010Prop34
280
     0
102
RTVSPost2010PropOp34
 70
     1
102
RTVSPost2010Prop35
280
     0
102
RTVSPost2010PropOp35
 70
     1
102
RTVSPost2010Prop36
280
     0
102
RTVSPost2010PropOp36
 70
     1
102
RTVSPost2010Prop37
 90
       50
102
RTVSPost2010PropOp37
 70
     1
102
RTVSPost2010Prop38
140
0.0
102
RTVSPost2010PropOp38
 70
     1
102
RTVSPost2010Prop39
140
1.0
102
RTVSPost2010PropOp39
 70
     1
102
RTVSPost2010Prop40
 90
        0
102
RTVSPost2010PropOp40
 70
     1
102
RTVSPost2010Prop41ColorIndex
 90
       18
102
RTVSPost2010Prop41ColorRGB
 90
        0
102
RTVSPost2010PropOp41
 70
     1
102
RTVSPost2010Prop42
 90
       50
102
RTVSPost2010PropOp42
 70
     1
102
RTVSPost2010Prop43
 90
        3
102
RTVSPost2010PropOp43
 70
     1
102
RTVSPost2010Prop44ColorIndex
 90
        5
102
RTVSPost2010Prop44ColorRGB
 90
      255
102
RTVSPost2010PropOp44
 70
     1
102
RTVSPost2010Prop45
280
     0
102
RTVSPost2010PropOp45
 70
     1
102
RTVSPost2010Prop46
 90
       50
102
RTVSPost2010PropOp46
 70
     1
102
RTVSPost2010Prop47
 90
       50
102
RTVSPost2010PropOp47
 70
     1
102
RTVSPost2010Prop48
 90
       50
102
RTVSPost2010PropOp48
 70
     1
102
RTVSPost2010Prop49
280
     0
102
RTVSPost2010PropOp49
 70
     1
102
RTVSPost2010Prop50
 90
       50
102
RTVSPost2010PropOp50
 70
     1
102
RTVSPost2010Prop51ColorIndex
 90
      256
102
RTVSPost2010Prop51ColorRGB
 90
-16777216
102
RTVSPost2010PropOp51
 70
     0
102
RTVSPost2010Prop52
140
1.0
102
RTVSPost2010PropOp52
 70
     0
102
RTVSPost2010Prop53
 90
        2
102
RTVSPost2010PropOp53
 70
     1
102
RTVSPost2010Prop54
  1
strokes_ogs.tif
102
RTVSPost2010PropOp54
 70
     1
102
RTVSPost2010Prop55
280
     0
102
RTVSPost2010PropOp55
 70
     1
102
RTVSPost2010Prop56
140
1.0
102
RTVSPost2010PropOp56
 70
     1
102
RTVSPost2010Prop57
140
1.0
102
RTVSPost2010PropOp57
 70
     1
  0
XRECORD
  5
238
102
{ACAD_REACTORS
330
237
102
}
330
237
100
AcDbXrecord
280
     1
102
RTVSPropertyOp0
 70
     1
102
RTVSPropertyOp1
 70
     1
102
RTVSPropertyOp2
 70
     1
102
RTVSPropertyOp3
 70
     1
102
RTVSPropertyOp4
 70
     1
102
RTVSPropertyOp5
 70
     1
102
RTVSPropertyOp6
 70
     1
102
RTVSPropertyOp7
 70
     1
102
RTVSPropertyOp8
 70
     1
102
RTVSPropertyOp9
 70
     1
102
RTVSPropertyOp10
 70
     1
102
RTVSPropertyOp11
 70
     1
102
RTVSPropertyOp12
 70
     1
102
RTVSPropertyOp13
 70
     1
102
RTVSPropertyOp14
 70
     1
102
RTVSPropertyOp15
 70
     1
102
RTVSPropertyOp16
 70
     1
102
RTVSPropertyOp17
 70
     1
102
RTVSPropertyOp18
 70
     1
102
RTVSPropertyOp19
 70
     1
102
RTVSPropertyOp20
 70
     1
102
RTVSPropertyOp21
 70
     1
102
RTVSPropertyOp22
 70
     1
102
RTVSPropertyOp23
 70
     1
102
RTVSPropertyOp24
 70
     1
102
RTVSPropertyOp25
 70
     1
102
RTVSPropertyOp26
 70
     1
102
RTVSPropertyOp27
 70
     1
102
RTVSPropertyOp28
 70
     1
102
RTVSPropertyOp29
 70
     1
102
RTVSPropertyOp30
 70
     1
102
RTVSPropertyOp31
 70
     1
102
RTVSPropertyOp32
 70
     1
102
RTVSPropertyOp33
 70
     1
102
RTVSPropertyOp34
 70
     1
102
RTVSPropertyOp35
 70
     1
102
RTVSPropertyOp36
 70
     1
102
RTVSPropertyOp37
 70
     1
102
RTVSPropertyOp38
 70
     1
102
RTVSPropertyOp39
 70
     1
102
RTVSPropertyOp40
 70
     1
102
RTVSPropertyOp41
 70
     1
102
RTVSPropertyOp42
 70
     1
102
RTVSPropertyOp43
 70
     1
102
RTVSPropertyOp44
 70
     1
102
RTVSPropertyOp45
 70
     1
102
RTVSPropertyOp46
 70
     1
102
RTVSPropertyOp47
 70
     1
102
RTVSPropertyOp48
 70
     1
102
RTVSPropertyOp49
 70
     1
102
RTVSPropertyOp50
 70
     1
102
RTVSPropertyOp51
 70
     0
102
RTVSPropertyOp52
 70
     0
102
RTVSPropertyOp53
 70
     1
102
RTVSPropertyOp54
 70
     1
102
RTVSPropertyOp55
 70
     1
102
RTVSPropertyOp56
 70
     1
102
RTVSPropertyOp57
 70
     1
102
RTVSPost2010Prop28
280
     0
102
RTVSPost2010PropOp28
 70
     1
102
RTVSPost2010Prop29
280
     1
102
RTVSPost2010PropOp29
 70
     1
102
RTVSPost2010Prop30
280
     1
102
RTVSPost2010PropOp30
 70
     1
102
RTVSPost2010Prop31
280
     0
102
RTVSPost2010PropOp31
 70
     1
102
RTVSPost2010Prop32
280
     0
102
RTVSPost2010PropOp32
 70
     1
102
RTVSPost2010Prop33
280
     0
102
RTVSPost2010PropOp33
 70
     1
102
RTVSPost2010Prop34
280
     0
102
RTVSPost2010PropOp34
 70
     1
102
RTVSPost2010Prop35
280
     0
102
RTVSPost2010PropOp35
 70
     1
102
RTVSPost2010Prop36
280
     0
102
RTVSPost2010PropOp36
 70
     1
102
RTVSPost2010Prop37
 90
       50
102
RTVSPost2010PropOp37
 70
     1
102
RTVSPost2010Prop38
140
0.0
102
RTVSPost2010PropOp38
 70
     1
102
RTVSPost2010Prop39
140
1.0
102
RTVSPost2010PropOp39
 70
     1
102
RTVSPost2010Prop40
 90
        0
102
RTVSPost2010PropOp40
 70
     1
102
RTVSPost2010Prop41ColorIndex
 90
       18
102
RTVSPost2010Prop41ColorRGB
 90
        0
102
RTVSPost2010PropOp41
 70
     1
102
RTVSPost2010Prop42
 90
       50
102
RTVSPost2010PropOp42
 70
     1
102
RTVSPost2010Prop43
 90
        3
102
RTVSPost2010PropOp43
 70
     1
102
RTVSPost2010Prop44ColorIndex
 90
        5
102
RTVSPost2010Prop44ColorRGB
 90
      255
102
RTVSPost2010PropOp44
 70
     1
102
RTVSPost2010Prop45
280
     0
102
RTVSPost2010PropOp45
 70
     1
102
RTVSPost2010Prop46
 90
       50
102
RTVSPost2010PropOp46
 70
     1
102
RTVSPost2010Prop47
 90
       50
102
RTVSPost2010PropOp47
 70
     1
102
RTVSPost2010Prop48
 90
       50
102
RTVSPost2010PropOp48
 70
     1
102
RTVSPost2010Prop49
280
     0
102
RTVSPost2010PropOp49
 70
     1
102
RTVSPost2010Prop50
 90
       50
102
RTVSPost2010PropOp50
 70
     1
102
RTVSPost2010Prop51ColorIndex
 90
      256
102
RTVSPost2010Prop51ColorRGB
 90
-16777216
102
RTVSPost2010PropOp51
 70
     0
102
RTVSPost2010Prop52
140
1.0
102
RTVSPost2010PropOp52
 70
     0
102
RTVSPost2010Prop53
 90
        2
102
RTVSPost2010PropOp53
 70
     1
102
RTVSPost2010Prop54
  1
strokes_ogs.tif
102
RTVSPost2010PropOp54
 70
     1
102
RTVSPost2010Prop55
280
     0
102
RTVSPost2010PropOp55
 70
     1
102
RTVSPost2010Prop56
140
1.0
102
RTVSPost2010PropOp56
 70
     1
102
RTVSPost2010Prop57
140
1.0
102
RTVSPost2010PropOp57
 70
     1
  0
XRECORD
  5
23A
102
{ACAD_REACTORS
330
239
102
}
330
239
100
AcDbXrecord
280
     1
102
RTVSPropertyOp0
 70
     1
102
RTVSPropertyOp1
 70
     1
102
RTVSPropertyOp2
 70
     1
102
RTVSPropertyOp3
 70
     1
102
RTVSPropertyOp4
 70
     1
102
RTVSPropertyOp5
 70
     1
102
RTVSPropertyOp6
 70
     1
102
RTVSPropertyOp7
 70
     1
102
RTVSPropertyOp8
 70
     1
102
RTVSPropertyOp9
 70
     1
102
RTVSPropertyOp10
 70
     1
102
RTVSPropertyOp11
 70
     1
102
RTVSPropertyOp12
 70
     1
102
RTVSPropertyOp13
 70
     1
102
RTVSPropertyOp14
 70
     1
102
RTVSPropertyOp15
 70
     1
102
RTVSPropertyOp16
 70
     1
102
RTVSPropertyOp17
 70
     1
102
RTVSPropertyOp18
 70
     1
102
RTVSPropertyOp19
 70
     1
102
RTVSPropertyOp20
 70
     1
102
RTVSPropertyOp21
 70
     1
102
RTVSPropertyOp22
 70
     1
102
RTVSPropertyOp23
 70
     1
102
RTVSPropertyOp24
 70
     1
102
RTVSPropertyOp25
 70
     1
102
RTVSPropertyOp26
 70
     1
102
RTVSPropertyOp27
 70
     1
102
RTVSPropertyOp28
 70
     1
102
RTVSPropertyOp29
 70
     1
102
RTVSPropertyOp30
 70
     1
102
RTVSPropertyOp31
 70
     1
102
RTVSPropertyOp32
 70
     1
102
RTVSPropertyOp33
 70
     1
102
RTVSPropertyOp34
 70
     1
102
RTVSPropertyOp35
 70
     1
102
RTVSPropertyOp36
 70
     1
102
RTVSPropertyOp37
 70
     1
102
RTVSPropertyOp38
 70
     1
102
RTVSPropertyOp39
 70
     1
102
RTVSPropertyOp40
 70
     1
102
RTVSPropertyOp41
 70
     1
102
RTVSPropertyOp42
 70
     1
102
RTVSPropertyOp43
 70
     1
102
RTVSPropertyOp44
 70
     1
102
RTVSPropertyOp45
 70
     1
102
RTVSPropertyOp46
 70
     1
102
RTVSPropertyOp47
 70
     1
102
RTVSPropertyOp48
 70
     1
102
RTVSPropertyOp49
 70
     1
102
RTVSPropertyOp50
 70
     1
102
RTVSPropertyOp51
 70
     0
102
RTVSPropertyOp52
 70
     0
102
RTVSPropertyOp53
 70
     1
102
RTVSPropertyOp54
 70
     1
102
RTVSPropertyOp55
 70
     1
102
RTVSPropertyOp56
 70
     1
102
RTVSPropertyOp57
 70
     1
102
RTVSPost2010Prop28
280
     0
102
RTVSPost2010PropOp28
 70
     1
102
RTVSPost2010Prop29
280
     1
102
RTVSPost2010PropOp29
 70
     1
102
RTVSPost2010Prop30
280
     1
102
RTVSPost2010PropOp30
 70
     1
102
RTVSPost2010Prop31
280
     0
102
RTVSPost2010PropOp31
 70
     1
102
RTVSPost2010Prop32
280
     0
102
RTVSPost2010PropOp32
 70
     1
102
RTVSPost2010Prop33
280
     0
102
RTVSPost2010PropOp33
 70
     1
102
RTVSPost2010Prop34
280
     0
102
RTVSPost2010PropOp34
 70
     1
102
RTVSPost2010Prop35
280
     0
102
RTVSPost2010PropOp35
 70
     1
102
RTVSPost2010Prop36
280
     0
102
RTVSPost2010PropOp36
 70
     1
102
RTVSPost2010Prop37
 90
       50
102
RTVSPost2010PropOp37
 70
     1
102
RTVSPost2010Prop38
140
0.0
102
RTVSPost2010PropOp38
 70
     1
102
RTVSPost2010Prop39
140
1.0
102
RTVSPost2010PropOp39
 70
     1
102
RTVSPost2010Prop40
 90
        0
102
RTVSPost2010PropOp40
 70
     1
102
RTVSPost2010Prop41ColorIndex
 90
       18
102
RTVSPost2010Prop41ColorRGB
 90
        0
102
RTVSPost2010PropOp41
 70
     1
102
RTVSPost2010Prop42
 90
       50
102
RTVSPost2010PropOp42
 70
     1
102
RTVSPost2010Prop43
 90
        3
102
RTVSPost2010PropOp43
 70
     1
102
RTVSPost2010Prop44ColorIndex
 90
        5
102
RTVSPost2010Prop44ColorRGB
 90
      255
102
RTVSPost2010PropOp44
 70
     1
102
RTVSPost2010Prop45
280
     0
102
RTVSPost2010PropOp45
 70
     1
102
RTVSPost2010Prop46
 90
       50
102
RTVSPost2010PropOp46
 70
     1
102
RTVSPost2010Prop47
 90
       50
102
RTVSPost2010PropOp47
 70
     1
102
RTVSPost2010Prop48
 90
       50
102
RTVSPost2010PropOp48
 70
     1
102
RTVSPost2010Prop49
280
     0
102
RTVSPost2010PropOp49
 70
     1
102
RTVSPost2010Prop50
 90
       50
102
RTVSPost2010PropOp50
 70
     1
102
RTVSPost2010Prop51ColorIndex
 90
      256
102
RTVSPost2010Prop51ColorRGB
 90
-16777216
102
RTVSPost2010PropOp51
 70
     0
102
RTVSPost2010Prop52
140
1.0
102
RTVSPost2010PropOp52
 70
     0
102
RTVSPost2010Prop53
 90
        2
102
RTVSPost2010PropOp53
 70
     1
102
RTVSPost2010Prop54
  1
strokes_ogs.tif
102
RTVSPost2010PropOp54
 70
     1
102
RTVSPost2010Prop55
280
     0
102
RTVSPost2010PropOp55
 70
     1
102
RTVSPost2010Prop56
140
1.0
102
RTVSPost2010PropOp56
 70
     1
102
RTVSPost2010Prop57
140
1.0
102
RTVSPost2010PropOp57
 70
     1
  0
XRECORD
  5
23C
102
{ACAD_REACTORS
330
23B
102
}
330
23B
100
AcDbXrecord
280
     1
102
RTVSPropertyOp0
 70
     1
102
RTVSPropertyOp1
 70
     1
102
RTVSPropertyOp2
 70
     1
102
RTVSPropertyOp3
 70
     1
102
RTVSPropertyOp4
 70
     1
102
RTVSPropertyOp5
 70
     1
102
RTVSPropertyOp6
 70
     1
102
RTVSPropertyOp7
 70
     1
102
RTVSPropertyOp8
 70
     1
102
RTVSPropertyOp9
 70
     1
102
RTVSPropertyOp10
 70
     1
102
RTVSPropertyOp11
 70
     1
102
RTVSPropertyOp12
 70
     1
102
RTVSPropertyOp13
 70
     1
102
RTVSPropertyOp14
 70
     1
102
RTVSPropertyOp15
 70
     1
102
RTVSPropertyOp16
 70
     1
102
RTVSPropertyOp17
 70
     1
102
RTVSPropertyOp18
 70
     1
102
RTVSPropertyOp19
 70
     1
102
RTVSPropertyOp20
 70
     1
102
RTVSPropertyOp21
 70
     1
102
RTVSPropertyOp22
 70
     1
102
RTVSPropertyOp23
 70
     1
102
RTVSPropertyOp24
 70
     1
102
RTVSPropertyOp25
 70
     1
102
RTVSPropertyOp26
 70
     1
102
RTVSPropertyOp27
 70
     1
102
RTVSPropertyOp28
 70
     1
102
RTVSPropertyOp29
 70
     1
102
RTVSPropertyOp30
 70
     1
102
RTVSPropertyOp31
 70
     1
102
RTVSPropertyOp32
 70
     1
102
RTVSPropertyOp33
 70
     1
102
RTVSPropertyOp34
 70
     1
102
RTVSPropertyOp35
 70
     1
102
RTVSPropertyOp36
 70
     1
102
RTVSPropertyOp37
 70
     1
102
RTVSPropertyOp38
 70
     1
102
RTVSPropertyOp39
 70
     1
102
RTVSPropertyOp40
 70
     1
102
RTVSPropertyOp41
 70
     1
102
RTVSPropertyOp42
 70
     1
102
RTVSPropertyOp43
 70
     1
102
RTVSPropertyOp44
 70
     1
102
RTVSPropertyOp45
 70
     1
102
RTVSPropertyOp46
 70
     1
102
RTVSPropertyOp47
 70
     1
102
RTVSPropertyOp48
 70
     1
102
RTVSPropertyOp49
 70
     1
102
RTVSPropertyOp50
 70
     1
102
RTVSPropertyOp51
 70
     0
102
RTVSPropertyOp52
 70
     0
102
RTVSPropertyOp53
 70
     1
102
RTVSPropertyOp54
 70
     1
102
RTVSPropertyOp55
 70
     1
102
RTVSPropertyOp56
 70
     1
102
RTVSPropertyOp57
 70
     1
102
RTVSPost2010Prop28
280
     0
102
RTVSPost2010PropOp28
 70
     1
102
RTVSPost2010Prop29
280
     1
102
RTVSPost2010PropOp29
 70
     1
102
RTVSPost2010Prop30
280
     1
102
RTVSPost2010PropOp30
 70
     1
102
RTVSPost2010Prop31
280
     0
102
RTVSPost2010PropOp31
 70
     1
102
RTVSPost2010Prop32
280
     0
102
RTVSPost2010PropOp32
 70
     1
102
RTVSPost2010Prop33
280
     0
102
RTVSPost2010PropOp33
 70
     1
102
RTVSPost2010Prop34
280
     0
102
RTVSPost2010PropOp34
 70
     1
102
RTVSPost2010Prop35
280
     0
102
RTVSPost2010PropOp35
 70
     1
102
RTVSPost2010Prop36
280
     0
102
RTVSPost2010PropOp36
 70
     1
102
RTVSPost2010Prop37
 90
       50
102
RTVSPost2010PropOp37
 70
     1
102
RTVSPost2010Prop38
140
0.0
102
RTVSPost2010PropOp38
 70
     1
102
RTVSPost2010Prop39
140
1.0
102
RTVSPost2010PropOp39
 70
     1
102
RTVSPost2010Prop40
 90
        0
102
RTVSPost2010PropOp40
 70
     1
102
RTVSPost2010Prop41ColorIndex
 90
       18
102
RTVSPost2010Prop41ColorRGB
 90
        0
102
RTVSPost2010PropOp41
 70
     1
102
RTVSPost2010Prop42
 90
       50
102
RTVSPost2010PropOp42
 70
     1
102
RTVSPost2010Prop43
 90
        3
102
RTVSPost2010PropOp43
 70
     1
102
RTVSPost2010Prop44ColorIndex
 90
        5
102
RTVSPost2010Prop44ColorRGB
 90
      255
102
RTVSPost2010PropOp44
 70
     1
102
RTVSPost2010Prop45
280
     0
102
RTVSPost2010PropOp45
 70
     1
102
RTVSPost2010Prop46
 90
       50
102
RTVSPost2010PropOp46
 70
     1
102
RTVSPost2010Prop47
 90
       50
102
RTVSPost2010PropOp47
 70
     1
102
RTVSPost2010Prop48
 90
       50
102
RTVSPost2010PropOp48
 70
     1
102
RTVSPost2010Prop49
280
     0
102
RTVSPost2010PropOp49
 70
     1
102
RTVSPost2010Prop50
 90
       50
102
RTVSPost2010PropOp50
 70
     1
102
RTVSPost2010Prop51ColorIndex
 90
      256
102
RTVSPost2010Prop51ColorRGB
 90
-16777216
102
RTVSPost2010PropOp51
 70
     0
102
RTVSPost2010Prop52
140
1.0
102
RTVSPost2010PropOp52
 70
     0
102
RTVSPost2010Prop53
 90
        2
102
RTVSPost2010PropOp53
 70
     1
102
RTVSPost2010Prop54
  1
strokes_ogs.tif
102
RTVSPost2010PropOp54
 70
     1
102
RTVSPost2010Prop55
280
     0
102
RTVSPost2010PropOp55
 70
     1
102
RTVSPost2010Prop56
140
1.0
102
RTVSPost2010PropOp56
 70
     1
102
RTVSPost2010Prop57
140
1.0
102
RTVSPost2010PropOp57
 70
     1
  0
XRECORD
  5
23E
102
{ACAD_REACTORS
330
23D
102
}
330
23D
100
AcDbXrecord
280
     1
102
RTVSPropertyOp0
 70
     1
102
RTVSPropertyOp1
 70
     1
102
RTVSPropertyOp2
 70
     1
102
RTVSPropertyOp3
 70
     1
102
RTVSPropertyOp4
 70
     1
102
RTVSPropertyOp5
 70
     1
102
RTVSPropertyOp6
 70
     1
102
RTVSPropertyOp7
 70
     1
102
RTVSPropertyOp8
 70
     1
102
RTVSPropertyOp9
 70
     1
102
RTVSPropertyOp10
 70
     1
102
RTVSPropertyOp11
 70
     1
102
RTVSPropertyOp12
 70
     1
102
RTVSPropertyOp13
 70
     1
102
RTVSPropertyOp14
 70
     1
102
RTVSPropertyOp15
 70
     1
102
RTVSPropertyOp16
 70
     1
102
RTVSPropertyOp17
 70
     1
102
RTVSPropertyOp18
 70
     1
102
RTVSPropertyOp19
 70
     1
102
RTVSPropertyOp20
 70
     1
102
RTVSPropertyOp21
 70
     1
102
RTVSPropertyOp22
 70
     1
102
RTVSPropertyOp23
 70
     1
102
RTVSPropertyOp24
 70
     1
102
RTVSPropertyOp25
 70
     1
102
RTVSPropertyOp26
 70
     1
102
RTVSPropertyOp27
 70
     1
102
RTVSPropertyOp28
 70
     1
102
RTVSPropertyOp29
 70
     1
102
RTVSPropertyOp30
 70
     1
102
RTVSPropertyOp31
 70
     1
102
RTVSPropertyOp32
 70
     1
102
RTVSPropertyOp33
 70
     1
102
RTVSPropertyOp34
 70
     1
102
RTVSPropertyOp35
 70
     1
102
RTVSPropertyOp36
 70
     1
102
RTVSPropertyOp37
 70
     1
102
RTVSPropertyOp38
 70
     1
102
RTVSPropertyOp39
 70
     1
102
RTVSPropertyOp40
 70
     1
102
RTVSPropertyOp41
 70
     1
102
RTVSPropertyOp42
 70
     1
102
RTVSPropertyOp43
 70
     1
102
RTVSPropertyOp44
 70
     1
102
RTVSPropertyOp45
 70
     1
102
RTVSPropertyOp46
 70
     1
102
RTVSPropertyOp47
 70
     1
102
RTVSPropertyOp48
 70
     1
102
RTVSPropertyOp49
 70
     1
102
RTVSPropertyOp50
 70
     1
102
RTVSPropertyOp51
 70
     0
102
RTVSPropertyOp52
 70
     0
102
RTVSPropertyOp53
 70
     1
102
RTVSPropertyOp54
 70
     1
102
RTVSPropertyOp55
 70
     1
102
RTVSPropertyOp56
 70
     1
102
RTVSPropertyOp57
 70
     1
102
RTVSPost2010Prop28
280
     0
102
RTVSPost2010PropOp28
 70
     1
102
RTVSPost2010Prop29
280
     1
102
RTVSPost2010PropOp29
 70
     1
102
RTVSPost2010Prop30
280
     1
102
RTVSPost2010PropOp30
 70
     1
102
RTVSPost2010Prop31
280
     0
102
RTVSPost2010PropOp31
 70
     1
102
RTVSPost2010Prop32
280
     0
102
RTVSPost2010PropOp32
 70
     1
102
RTVSPost2010Prop33
280
     0
102
RTVSPost2010PropOp33
 70
     1
102
RTVSPost2010Prop34
280
     0
102
RTVSPost2010PropOp34
 70
     1
102
RTVSPost2010Prop35
280
     0
102
RTVSPost2010PropOp35
 70
     1
102
RTVSPost2010Prop36
280
     0
102
RTVSPost2010PropOp36
 70
     1
102
RTVSPost2010Prop37
 90
       50
102
RTVSPost2010PropOp37
 70
     1
102
RTVSPost2010Prop38
140
0.0
102
RTVSPost2010PropOp38
 70
     1
102
RTVSPost2010Prop39
140
1.0
102
RTVSPost2010PropOp39
 70
     1
102
RTVSPost2010Prop40
 90
        0
102
RTVSPost2010PropOp40
 70
     1
102
RTVSPost2010Prop41ColorIndex
 90
       18
102
RTVSPost2010Prop41ColorRGB
 90
        0
102
RTVSPost2010PropOp41
 70
     1
102
RTVSPost2010Prop42
 90
       50
102
RTVSPost2010PropOp42
 70
     1
102
RTVSPost2010Prop43
 90
        3
102
RTVSPost2010PropOp43
 70
     1
102
RTVSPost2010Prop44ColorIndex
 90
        5
102
RTVSPost2010Prop44ColorRGB
 90
      255
102
RTVSPost2010PropOp44
 70
     1
102
RTVSPost2010Prop45
280
     0
102
RTVSPost2010PropOp45
 70
     1
102
RTVSPost2010Prop46
 90
       50
102
RTVSPost2010PropOp46
 70
     1
102
RTVSPost2010Prop47
 90
       50
102
RTVSPost2010PropOp47
 70
     1
102
RTVSPost2010Prop48
 90
       50
102
RTVSPost2010PropOp48
 70
     1
102
RTVSPost2010Prop49
280
     0
102
RTVSPost2010PropOp49
 70
     1
102
RTVSPost2010Prop50
 90
       50
102
RTVSPost2010PropOp50
 70
     1
102
RTVSPost2010Prop51ColorIndex
 90
      256
102
RTVSPost2010Prop51ColorRGB
 90
-16777216
102
RTVSPost2010PropOp51
 70
     0
102
RTVSPost2010Prop52
140
1.0
102
RTVSPost2010PropOp52
 70
     0
102
RTVSPost2010Prop53
 90
        2
102
RTVSPost2010PropOp53
 70
     1
102
RTVSPost2010Prop54
  1
strokes_ogs.tif
102
RTVSPost2010PropOp54
 70
     1
102
RTVSPost2010Prop55
280
     0
102
RTVSPost2010PropOp55
 70
     1
102
RTVSPost2010Prop56
140
1.0
102
RTVSPost2010PropOp56
 70
     1
102
RTVSPost2010Prop57
140
1.0
102
RTVSPost2010PropOp57
 70
     1
  0
XRECORD
  5
244
102
{ACAD_REACTORS
330
243
102
}
330
243
100
AcDbXrecord
280
     1
102
RTVSPropertyOp0
 70
     1
102
RTVSPropertyOp1
 70
     1
102
RTVSPropertyOp2
 70
     1
102
RTVSPropertyOp3
 70
     1
102
RTVSPropertyOp4
 70
     1
102
RTVSPropertyOp5
 70
     1
102
RTVSPropertyOp6
 70
     1
102
RTVSPropertyOp7
 70
     1
102
RTVSPropertyOp8
 70
     1
102
RTVSPropertyOp9
 70
     1
102
RTVSPropertyOp10
 70
     1
102
RTVSPropertyOp11
 70
     1
102
RTVSPropertyOp12
 70
     1
102
RTVSPropertyOp13
 70
     1
102
RTVSPropertyOp14
 70
     1
102
RTVSPropertyOp15
 70
     1
102
RTVSPropertyOp16
 70
     1
102
RTVSPropertyOp17
 70
     1
102
RTVSPropertyOp18
 70
     1
102
RTVSPropertyOp19
 70
     1
102
RTVSPropertyOp20
 70
     1
102
RTVSPropertyOp21
 70
     1
102
RTVSPropertyOp22
 70
     1
102
RTVSPropertyOp23
 70
     1
102
RTVSPropertyOp24
 70
     1
102
RTVSPropertyOp25
 70
     1
102
RTVSPropertyOp26
 70
     1
102
RTVSPropertyOp27
 70
     1
102
RTVSPropertyOp28
 70
     1
102
RTVSPropertyOp29
 70
     1
102
RTVSPropertyOp30
 70
     1
102
RTVSPropertyOp31
 70
     1
102
RTVSPropertyOp32
 70
     1
102
RTVSPropertyOp33
 70
     1
102
RTVSPropertyOp34
 70
     1
102
RTVSPropertyOp35
 70
     1
102
RTVSPropertyOp36
 70
     1
102
RTVSPropertyOp37
 70
     1
102
RTVSPropertyOp38
 70
     1
102
RTVSPropertyOp39
 70
     1
102
RTVSPropertyOp40
 70
     1
102
RTVSPropertyOp41
 70
     1
102
RTVSPropertyOp42
 70
     1
102
RTVSPropertyOp43
 70
     1
102
RTVSPropertyOp44
 70
     1
102
RTVSPropertyOp45
 70
     1
102
RTVSPropertyOp46
 70
     1
102
RTVSPropertyOp47
 70
     1
102
RTVSPropertyOp48
 70
     1
102
RTVSPropertyOp49
 70
     1
102
RTVSPropertyOp50
 70
     1
102
RTVSPropertyOp51
 70
     0
102
RTVSPropertyOp52
 70
     0
102
RTVSPropertyOp53
 70
     1
102
RTVSPropertyOp54
 70
     1
102
RTVSPropertyOp55
 70
     1
102
RTVSPropertyOp56
 70
     1
102
RTVSPropertyOp57
 70
     1
102
RTVSPost2010Prop28
280
     0
102
RTVSPost2010PropOp28
 70
     1
102
RTVSPost2010Prop29
280
     1
102
RTVSPost2010PropOp29
 70
     1
102
RTVSPost2010Prop30
280
     1
102
RTVSPost2010PropOp30
 70
     1
102
RTVSPost2010Prop31
280
     0
102
RTVSPost2010PropOp31
 70
     1
102
RTVSPost2010Prop32
280
     0
102
RTVSPost2010PropOp32
 70
     1
102
RTVSPost2010Prop33
280
     0
102
RTVSPost2010PropOp33
 70
     1
102
RTVSPost2010Prop34
280
     0
102
RTVSPost2010PropOp34
 70
     1
102
RTVSPost2010Prop35
280
     0
102
RTVSPost2010PropOp35
 70
     1
102
RTVSPost2010Prop36
280
     0
102
RTVSPost2010PropOp36
 70
     1
102
RTVSPost2010Prop37
 90
       50
102
RTVSPost2010PropOp37
 70
     1
102
RTVSPost2010Prop38
140
0.0
102
RTVSPost2010PropOp38
 70
     1
102
RTVSPost2010Prop39
140
1.0
102
RTVSPost2010PropOp39
 70
     1
102
RTVSPost2010Prop40
 90
        0
102
RTVSPost2010PropOp40
 70
     1
102
RTVSPost2010Prop41ColorIndex
 90
       18
102
RTVSPost2010Prop41ColorRGB
 90
        0
102
RTVSPost2010PropOp41
 70
     1
102
RTVSPost2010Prop42
 90
       50
102
RTVSPost2010PropOp42
 70
     1
102
RTVSPost2010Prop43
 90
        3
102
RTVSPost2010PropOp43
 70
     1
102
RTVSPost2010Prop44ColorIndex
 90
        5
102
RTVSPost2010Prop44ColorRGB
 90
      255
102
RTVSPost2010PropOp44
 70
     1
102
RTVSPost2010Prop45
280
     0
102
RTVSPost2010PropOp45
 70
     1
102
RTVSPost2010Prop46
 90
       50
102
RTVSPost2010PropOp46
 70
     1
102
RTVSPost2010Prop47
 90
       50
102
RTVSPost2010PropOp47
 70
     1
102
RTVSPost2010Prop48
 90
       50
102
RTVSPost2010PropOp48
 70
     1
102
RTVSPost2010Prop49
280
     0
102
RTVSPost2010PropOp49
 70
     1
102
RTVSPost2010Prop50
 90
       50
102
RTVSPost2010PropOp50
 70
     1
102
RTVSPost2010Prop51ColorIndex
 90
      256
102
RTVSPost2010Prop51ColorRGB
 90
-16777216
102
RTVSPost2010PropOp51
 70
     0
102
RTVSPost2010Prop52
140
1.0
102
RTVSPost2010PropOp52
 70
     0
102
RTVSPost2010Prop53
 90
        2
102
RTVSPost2010PropOp53
 70
     1
102
RTVSPost2010Prop54
  1
strokes_ogs.tif
102
RTVSPost2010PropOp54
 70
     1
102
RTVSPost2010Prop55
280
     0
102
RTVSPost2010PropOp55
 70
     1
102
RTVSPost2010Prop56
140
1.0
102
RTVSPost2010PropOp56
 70
     1
102
RTVSPost2010Prop57
140
1.0
102
RTVSPost2010PropOp57
 70
     1
  0
XRECORD
  5
258
102
{ACAD_REACTORS
330
257
102
}
330
257
100
AcDbXrecord
280
     1
102
RTVSPropertyOp0
 70
     0
102
RTVSPropertyOp1
 70
     0
102
RTVSPropertyOp2
 70
     0
102
RTVSPropertyOp3
 70
     0
102
RTVSPropertyOp4
 70
     0
102
RTVSPropertyOp5
 70
     0
102
RTVSPropertyOp6
 70
     0
102
RTVSPropertyOp7
 70
     0
102
RTVSPropertyOp8
 70
     0
102
RTVSPropertyOp9
 70
     0
102
RTVSPropertyOp10
 70
     0
102
RTVSPropertyOp11
 70
     0
102
RTVSPropertyOp12
 70
     0
102
RTVSPropertyOp13
 70
     0
102
RTVSPropertyOp14
 70
     2
102
RTVSPropertyOp15
 70
     0
102
RTVSPropertyOp16
 70
     0
102
RTVSPropertyOp17
 70
     0
102
RTVSPropertyOp18
 70
     0
102
RTVSPropertyOp19
 70
     0
102
RTVSPropertyOp20
 70
     0
102
RTVSPropertyOp21
 70
     0
102
RTVSPropertyOp22
 70
     0
102
RTVSPropertyOp23
 70
     0
102
RTVSPropertyOp24
 70
     0
102
RTVSPropertyOp25
 70
     0
102
RTVSPropertyOp26
 70
     0
102
RTVSPropertyOp27
 70
     0
102
RTVSPropertyOp28
 70
     0
102
RTVSPropertyOp29
 70
     0
102
RTVSPropertyOp30
 70
     0
102
RTVSPropertyOp31
 70
     0
102
RTVSPropertyOp32
 70
     0
102
RTVSPropertyOp33
 70
     0
102
RTVSPropertyOp34
 70
     0
102
RTVSPropertyOp35
 70
     0
102
RTVSPropertyOp36
 70
     0
102
RTVSPropertyOp37
 70
     0
102
RTVSPropertyOp38
 70
     0
102
RTVSPropertyOp39
 70
     0
102
RTVSPropertyOp40
 70
     0
102
RTVSPropertyOp41
 70
     0
102
RTVSPropertyOp42
 70
     0
102
RTVSPropertyOp43
 70
     0
102
RTVSPropertyOp44
 70
     0
102
RTVSPropertyOp45
 70
     0
102
RTVSPropertyOp46
 70
     0
102
RTVSPropertyOp47
 70
     0
102
RTVSPropertyOp48
 70
     0
102
RTVSPropertyOp49
 70
     0
102
RTVSPropertyOp50
 70
     0
102
RTVSPropertyOp51
 70
     0
102
RTVSPropertyOp52
 70
     0
102
RTVSPropertyOp53
 70
     0
102
RTVSPropertyOp54
 70
     0
102
RTVSPropertyOp55
 70
     0
102
RTVSPropertyOp56
 70
     0
102
RTVSPropertyOp57
 70
     0
102
RTVSPost2010Prop28
280
     0
102
RTVSPost2010PropOp28
 70
     0
102
RTVSPost2010Prop29
280
     1
102
RTVSPost2010PropOp29
 70
     0
102
RTVSPost2010Prop30
280
     1
102
RTVSPost2010PropOp30
 70
     0
102
RTVSPost2010Prop31
280
     0
102
RTVSPost2010PropOp31
 70
     0
102
RTVSPost2010Prop32
280
     0
102
RTVSPost2010PropOp32
 70
     0
102
RTVSPost2010Prop33
280
     0
102
RTVSPost2010PropOp33
 70
     0
102
RTVSPost2010Prop34
280
     0
102
RTVSPost2010PropOp34
 70
     0
102
RTVSPost2010Prop35
280
     0
102
RTVSPost2010PropOp35
 70
     0
102
RTVSPost2010Prop36
280
     0
102
RTVSPost2010PropOp36
 70
     0
102
RTVSPost2010Prop37
 90
       50
102
RTVSPost2010PropOp37
 70
     0
102
RTVSPost2010Prop38
140
0.0
102
RTVSPost2010PropOp38
 70
     0
102
RTVSPost2010Prop39
140
1.0
102
RTVSPost2010PropOp39
 70
     0
102
RTVSPost2010Prop40
 90
        0
102
RTVSPost2010PropOp40
 70
     0
102
RTVSPost2010Prop41ColorIndex
 90
       18
102
RTVSPost2010Prop41ColorRGB
 90
        0
102
RTVSPost2010PropOp41
 70
     0
102
RTVSPost2010Prop42
 90
       50
102
RTVSPost2010PropOp42
 70
     0
102
RTVSPost2010Prop43
 90
        3
102
RTVSPost2010PropOp43
 70
     0
102
RTVSPost2010Prop44ColorIndex
 90
        5
102
RTVSPost2010Prop44ColorRGB
 90
      255
102
RTVSPost2010PropOp44
 70
     0
102
RTVSPost2010Prop45
280
     0
102
RTVSPost2010PropOp45
 70
     0
102
RTVSPost2010Prop46
 90
       50
102
RTVSPost2010PropOp46
 70
     0
102
RTVSPost2010Prop47
 90
       50
102
RTVSPost2010PropOp47
 70
     0
102
RTVSPost2010Prop48
 90
       50
102
RTVSPost2010PropOp48
 70
     0
102
RTVSPost2010Prop49
280
     0
102
RTVSPost2010PropOp49
 70
     0
102
RTVSPost2010Prop50
 90
       50
102
RTVSPost2010PropOp50
 70
     0
102
RTVSPost2010Prop51ColorIndex
 90
      256
102
RTVSPost2010Prop51ColorRGB
 90
-16777216
102
RTVSPost2010PropOp51
 70
     0
102
RTVSPost2010Prop52
140
1.0
102
RTVSPost2010PropOp52
 70
     0
102
RTVSPost2010Prop53
 90
        2
102
RTVSPost2010PropOp53
 70
     0
102
RTVSPost2010Prop54
  1
strokes_ogs.tif
102
RTVSPost2010PropOp54
 70
     0
102
RTVSPost2010Prop55
280
     0
102
RTVSPost2010PropOp55
 70
     0
102
RTVSPost2010Prop56
140
1.0
102
RTVSPost2010PropOp56
 70
     0
102
RTVSPost2010Prop57
140
1.0
102
RTVSPost2010PropOp57
 70
     0
  0
XRECORD
  5
252
102
{ACAD_REACTORS
330
251
102
}
330
251
100
AcDbXrecord
280
     1
102
RTVSPropertyOp0
 70
     1
102
RTVSPropertyOp1
 70
     1
102
RTVSPropertyOp2
 70
     1
102
RTVSPropertyOp3
 70
     1
102
RTVSPropertyOp4
 70
     1
102
RTVSPropertyOp5
 70
     1
102
RTVSPropertyOp6
 70
     1
102
RTVSPropertyOp7
 70
     1
102
RTVSPropertyOp8
 70
     1
102
RTVSPropertyOp9
 70
     1
102
RTVSPropertyOp10
 70
     1
102
RTVSPropertyOp11
 70
     1
102
RTVSPropertyOp12
 70
     1
102
RTVSPropertyOp13
 70
     1
102
RTVSPropertyOp14
 70
     1
102
RTVSPropertyOp15
 70
     1
102
RTVSPropertyOp16
 70
     1
102
RTVSPropertyOp17
 70
     1
102
RTVSPropertyOp18
 70
     1
102
RTVSPropertyOp19
 70
     1
102
RTVSPropertyOp20
 70
     1
102
RTVSPropertyOp21
 70
     1
102
RTVSPropertyOp22
 70
     1
102
RTVSPropertyOp23
 70
     1
102
RTVSPropertyOp24
 70
     1
102
RTVSPropertyOp25
 70
     1
102
RTVSPropertyOp26
 70
     1
102
RTVSPropertyOp27
 70
     1
102
RTVSPropertyOp28
 70
     1
102
RTVSPropertyOp29
 70
     1
102
RTVSPropertyOp30
 70
     1
102
RTVSPropertyOp31
 70
     1
102
RTVSPropertyOp32
 70
     1
102
RTVSPropertyOp33
 70
     1
102
RTVSPropertyOp34
 70
     1
102
RTVSPropertyOp35
 70
     1
102
RTVSPropertyOp36
 70
     1
102
RTVSPropertyOp37
 70
     1
102
RTVSPropertyOp38
 70
     1
102
RTVSPropertyOp39
 70
     1
102
RTVSPropertyOp40
 70
     1
102
RTVSPropertyOp41
 70
     1
102
RTVSPropertyOp42
 70
     1
102
RTVSPropertyOp43
 70
     1
102
RTVSPropertyOp44
 70
     1
102
RTVSPropertyOp45
 70
     1
102
RTVSPropertyOp46
 70
     1
102
RTVSPropertyOp47
 70
     1
102
RTVSPropertyOp48
 70
     1
102
RTVSPropertyOp49
 70
     1
102
RTVSPropertyOp50
 70
     1
102
RTVSPropertyOp51
 70
     0
102
RTVSPropertyOp52
 70
     0
102
RTVSPropertyOp53
 70
     1
102
RTVSPropertyOp54
 70
     1
102
RTVSPropertyOp55
 70
     1
102
RTVSPropertyOp56
 70
     1
102
RTVSPropertyOp57
 70
     1
102
RTVSPost2010Prop28
280
     0
102
RTVSPost2010PropOp28
 70
     1
102
RTVSPost2010Prop29
280
     1
102
RTVSPost2010PropOp29
 70
     1
102
RTVSPost2010Prop30
280
     1
102
RTVSPost2010PropOp30
 70
     1
102
RTVSPost2010Prop31
280
     0
102
RTVSPost2010PropOp31
 70
     1
102
RTVSPost2010Prop32
280
     0
102
RTVSPost2010PropOp32
 70
     1
102
RTVSPost2010Prop33
280
     0
102
RTVSPost2010PropOp33
 70
     1
102
RTVSPost2010Prop34
280
     0
102
RTVSPost2010PropOp34
 70
     1
102
RTVSPost2010Prop35
280
     0
102
RTVSPost2010PropOp35
 70
     1
102
RTVSPost2010Prop36
280
     0
102
RTVSPost2010PropOp36
 70
     1
102
RTVSPost2010Prop37
 90
       50
102
RTVSPost2010PropOp37
 70
     1
102
RTVSPost2010Prop38
140
0.0
102
RTVSPost2010PropOp38
 70
     1
102
RTVSPost2010Prop39
140
1.0
102
RTVSPost2010PropOp39
 70
     1
102
RTVSPost2010Prop40
 90
        0
102
RTVSPost2010PropOp40
 70
     1
102
RTVSPost2010Prop41ColorIndex
 90
       18
102
RTVSPost2010Prop41ColorRGB
 90
        0
102
RTVSPost2010PropOp41
 70
     1
102
RTVSPost2010Prop42
 90
       50
102
RTVSPost2010PropOp42
 70
     1
102
RTVSPost2010Prop43
 90
        3
102
RTVSPost2010PropOp43
 70
     1
102
RTVSPost2010Prop44ColorIndex
 90
        5
102
RTVSPost2010Prop44ColorRGB
 90
      255
102
RTVSPost2010PropOp44
 70
     1
102
RTVSPost2010Prop45
280
     0
102
RTVSPost2010PropOp45
 70
     1
102
RTVSPost2010Prop46
 90
       50
102
RTVSPost2010PropOp46
 70
     1
102
RTVSPost2010Prop47
 90
       50
102
RTVSPost2010PropOp47
 70
     1
102
RTVSPost2010Prop48
 90
       50
102
RTVSPost2010PropOp48
 70
     1
102
RTVSPost2010Prop49
280
     0
102
RTVSPost2010PropOp49
 70
     1
102
RTVSPost2010Prop50
 90
       50
102
RTVSPost2010PropOp50
 70
     1
102
RTVSPost2010Prop51ColorIndex
 90
      256
102
RTVSPost2010Prop51ColorRGB
 90
-16777216
102
RTVSPost2010PropOp51
 70
     0
102
RTVSPost2010Prop52
140
1.0
102
RTVSPost2010PropOp52
 70
     0
102
RTVSPost2010Prop53
 90
        2
102
RTVSPost2010PropOp53
 70
     1
102
RTVSPost2010Prop54
  1
strokes_ogs.tif
102
RTVSPost2010PropOp54
 70
     1
102
RTVSPost2010Prop55
280
     0
102
RTVSPost2010PropOp55
 70
     1
102
RTVSPost2010Prop56
140
1.0
102
RTVSPost2010PropOp56
 70
     1
102
RTVSPost2010Prop57
140
1.0
102
RTVSPost2010PropOp57
 70
     1
  0
XRECORD
  5
25A
102
{ACAD_REACTORS
330
259
102
}
330
259
100
AcDbXrecord
280
     1
102
RTVSPropertyOp0
 70
     0
102
RTVSPropertyOp1
 70
     0
102
RTVSPropertyOp2
 70
     0
102
RTVSPropertyOp3
 70
     0
102
RTVSPropertyOp4
 70
     0
102
RTVSPropertyOp5
 70
     0
102
RTVSPropertyOp6
 70
     0
102
RTVSPropertyOp7
 70
     0
102
RTVSPropertyOp8
 70
     0
102
RTVSPropertyOp9
 70
     0
102
RTVSPropertyOp10
 70
     0
102
RTVSPropertyOp11
 70
     0
102
RTVSPropertyOp12
 70
     0
102
RTVSPropertyOp13
 70
     0
102
RTVSPropertyOp14
 70
     2
102
RTVSPropertyOp15
 70
     0
102
RTVSPropertyOp16
 70
     0
102
RTVSPropertyOp17
 70
     0
102
RTVSPropertyOp18
 70
     0
102
RTVSPropertyOp19
 70
     0
102
RTVSPropertyOp20
 70
     0
102
RTVSPropertyOp21
 70
     0
102
RTVSPropertyOp22
 70
     0
102
RTVSPropertyOp23
 70
     0
102
RTVSPropertyOp24
 70
     0
102
RTVSPropertyOp25
 70
     0
102
RTVSPropertyOp26
 70
     0
102
RTVSPropertyOp27
 70
     0
102
RTVSPropertyOp28
 70
     0
102
RTVSPropertyOp29
 70
     0
102
RTVSPropertyOp30
 70
     0
102
RTVSPropertyOp31
 70
     0
102
RTVSPropertyOp32
 70
     0
102
RTVSPropertyOp33
 70
     0
102
RTVSPropertyOp34
 70
     0
102
RTVSPropertyOp35
 70
     0
102
RTVSPropertyOp36
 70
     0
102
RTVSPropertyOp37
 70
     0
102
RTVSPropertyOp38
 70
     0
102
RTVSPropertyOp39
 70
     0
102
RTVSPropertyOp40
 70
     0
102
RTVSPropertyOp41
 70
     0
102
RTVSPropertyOp42
 70
     0
102
RTVSPropertyOp43
 70
     0
102
RTVSPropertyOp44
 70
     0
102
RTVSPropertyOp45
 70
     0
102
RTVSPropertyOp46
 70
     0
102
RTVSPropertyOp47
 70
     0
102
RTVSPropertyOp48
 70
     0
102
RTVSPropertyOp49
 70
     0
102
RTVSPropertyOp50
 70
     0
102
RTVSPropertyOp51
 70
     0
102
RTVSPropertyOp52
 70
     0
102
RTVSPropertyOp53
 70
     0
102
RTVSPropertyOp54
 70
     0
102
RTVSPropertyOp55
 70
     0
102
RTVSPropertyOp56
 70
     0
102
RTVSPropertyOp57
 70
     0
102
RTVSPost2010Prop28
280
     0
102
RTVSPost2010PropOp28
 70
     0
102
RTVSPost2010Prop29
280
     1
102
RTVSPost2010PropOp29
 70
     0
102
RTVSPost2010Prop30
280
     1
102
RTVSPost2010PropOp30
 70
     0
102
RTVSPost2010Prop31
280
     0
102
RTVSPost2010PropOp31
 70
     0
102
RTVSPost2010Prop32
280
     0
102
RTVSPost2010PropOp32
 70
     0
102
RTVSPost2010Prop33
280
     0
102
RTVSPost2010PropOp33
 70
     0
102
RTVSPost2010Prop34
280
     0
102
RTVSPost2010PropOp34
 70
     0
102
RTVSPost2010Prop35
280
     0
102
RTVSPost2010PropOp35
 70
     0
102
RTVSPost2010Prop36
280
     0
102
RTVSPost2010PropOp36
 70
     0
102
RTVSPost2010Prop37
 90
       50
102
RTVSPost2010PropOp37
 70
     0
102
RTVSPost2010Prop38
140
0.0
102
RTVSPost2010PropOp38
 70
     0
102
RTVSPost2010Prop39
140
1.0
102
RTVSPost2010PropOp39
 70
     0
102
RTVSPost2010Prop40
 90
        0
102
RTVSPost2010PropOp40
 70
     0
102
RTVSPost2010Prop41ColorIndex
 90
       18
102
RTVSPost2010Prop41ColorRGB
 90
        0
102
RTVSPost2010PropOp41
 70
     0
102
RTVSPost2010Prop42
 90
       50
102
RTVSPost2010PropOp42
 70
     0
102
RTVSPost2010Prop43
 90
        3
102
RTVSPost2010PropOp43
 70
     0
102
RTVSPost2010Prop44ColorIndex
 90
        5
102
RTVSPost2010Prop44ColorRGB
 90
      255
102
RTVSPost2010PropOp44
 70
     0
102
RTVSPost2010Prop45
280
     0
102
RTVSPost2010PropOp45
 70
     0
102
RTVSPost2010Prop46
 90
       50
102
RTVSPost2010PropOp46
 70
     0
102
RTVSPost2010Prop47
 90
       50
102
RTVSPost2010PropOp47
 70
     0
102
RTVSPost2010Prop48
 90
       50
102
RTVSPost2010PropOp48
 70
     0
102
RTVSPost2010Prop49
280
     0
102
RTVSPost2010PropOp49
 70
     0
102
RTVSPost2010Prop50
 90
       50
102
RTVSPost2010PropOp50
 70
     0
102
RTVSPost2010Prop51ColorIndex
 90
      256
102
RTVSPost2010Prop51ColorRGB
 90
-16777216
102
RTVSPost2010PropOp51
 70
     0
102
RTVSPost2010Prop52
140
1.0
102
RTVSPost2010PropOp52
 70
     0
102
RTVSPost2010Prop53
 90
        2
102
RTVSPost2010PropOp53
 70
     0
102
RTVSPost2010Prop54
  1
strokes_ogs.tif
102
RTVSPost2010PropOp54
 70
     0
102
RTVSPost2010Prop55
280
     0
102
RTVSPost2010PropOp55
 70
     0
102
RTVSPost2010Prop56
140
1.0
102
RTVSPost2010PropOp56
 70
     0
102
RTVSPost2010Prop57
140
1.0
102
RTVSPost2010PropOp57
 70
     0
  0
XRECORD
  5
248
102
{ACAD_REACTORS
330
247
102
}
330
247
100
AcDbXrecord
280
     1
102
RTVSPropertyOp0
 70
     1
102
RTVSPropertyOp1
 70
     1
102
RTVSPropertyOp2
 70
     1
102
RTVSPropertyOp3
 70
     1
102
RTVSPropertyOp4
 70
     1
102
RTVSPropertyOp5
 70
     1
102
RTVSPropertyOp6
 70
     1
102
RTVSPropertyOp7
 70
     1
102
RTVSPropertyOp8
 70
     1
102
RTVSPropertyOp9
 70
     1
102
RTVSPropertyOp10
 70
     1
102
RTVSPropertyOp11
 70
     1
102
RTVSPropertyOp12
 70
     1
102
RTVSPropertyOp13
 70
     1
102
RTVSPropertyOp14
 70
     1
102
RTVSPropertyOp15
 70
     1
102
RTVSPropertyOp16
 70
     1
102
RTVSPropertyOp17
 70
     1
102
RTVSPropertyOp18
 70
     1
102
RTVSPropertyOp19
 70
     1
102
RTVSPropertyOp20
 70
     1
102
RTVSPropertyOp21
 70
     1
102
RTVSPropertyOp22
 70
     1
102
RTVSPropertyOp23
 70
     1
102
RTVSPropertyOp24
 70
     1
102
RTVSPropertyOp25
 70
     1
102
RTVSPropertyOp26
 70
     1
102
RTVSPropertyOp27
 70
     1
102
RTVSPropertyOp28
 70
     1
102
RTVSPropertyOp29
 70
     1
102
RTVSPropertyOp30
 70
     1
102
RTVSPropertyOp31
 70
     1
102
RTVSPropertyOp32
 70
     1
102
RTVSPropertyOp33
 70
     1
102
RTVSPropertyOp34
 70
     1
102
RTVSPropertyOp35
 70
     1
102
RTVSPropertyOp36
 70
     1
102
RTVSPropertyOp37
 70
     1
102
RTVSPropertyOp38
 70
     1
102
RTVSPropertyOp39
 70
     1
102
RTVSPropertyOp40
 70
     1
102
RTVSPropertyOp41
 70
     1
102
RTVSPropertyOp42
 70
     1
102
RTVSPropertyOp43
 70
     1
102
RTVSPropertyOp44
 70
     1
102
RTVSPropertyOp45
 70
     1
102
RTVSPropertyOp46
 70
     1
102
RTVSPropertyOp47
 70
     1
102
RTVSPropertyOp48
 70
     1
102
RTVSPropertyOp49
 70
     1
102
RTVSPropertyOp50
 70
     1
102
RTVSPropertyOp51
 70
     0
102
RTVSPropertyOp52
 70
     0
102
RTVSPropertyOp53
 70
     1
102
RTVSPropertyOp54
 70
     1
102
RTVSPropertyOp55
 70
     1
102
RTVSPropertyOp56
 70
     1
102
RTVSPropertyOp57
 70
     1
102
RTVSPost2010Prop28
280
     0
102
RTVSPost2010PropOp28
 70
     1
102
RTVSPost2010Prop29
280
     1
102
RTVSPost2010PropOp29
 70
     1
102
RTVSPost2010Prop30
280
     1
102
RTVSPost2010PropOp30
 70
     1
102
RTVSPost2010Prop31
280
     0
102
RTVSPost2010PropOp31
 70
     1
102
RTVSPost2010Prop32
280
     0
102
RTVSPost2010PropOp32
 70
     1
102
RTVSPost2010Prop33
280
     0
102
RTVSPost2010PropOp33
 70
     1
102
RTVSPost2010Prop34
280
     0
102
RTVSPost2010PropOp34
 70
     1
102
RTVSPost2010Prop35
280
     0
102
RTVSPost2010PropOp35
 70
     1
102
RTVSPost2010Prop36
280
     0
102
RTVSPost2010PropOp36
 70
     1
102
RTVSPost2010Prop37
 90
       50
102
RTVSPost2010PropOp37
 70
     1
102
RTVSPost2010Prop38
140
0.0
102
RTVSPost2010PropOp38
 70
     1
102
RTVSPost2010Prop39
140
1.0
102
RTVSPost2010PropOp39
 70
     1
102
RTVSPost2010Prop40
 90
        0
102
RTVSPost2010PropOp40
 70
     1
102
RTVSPost2010Prop41ColorIndex
 90
       18
102
RTVSPost2010Prop41ColorRGB
 90
        0
102
RTVSPost2010PropOp41
 70
     1
102
RTVSPost2010Prop42
 90
       50
102
RTVSPost2010PropOp42
 70
     1
102
RTVSPost2010Prop43
 90
        3
102
RTVSPost2010PropOp43
 70
     1
102
RTVSPost2010Prop44ColorIndex
 90
        5
102
RTVSPost2010Prop44ColorRGB
 90
      255
102
RTVSPost2010PropOp44
 70
     1
102
RTVSPost2010Prop45
280
     0
102
RTVSPost2010PropOp45
 70
     1
102
RTVSPost2010Prop46
 90
       50
102
RTVSPost2010PropOp46
 70
     1
102
RTVSPost2010Prop47
 90
       50
102
RTVSPost2010PropOp47
 70
     1
102
RTVSPost2010Prop48
 90
       50
102
RTVSPost2010PropOp48
 70
     1
102
RTVSPost2010Prop49
280
     0
102
RTVSPost2010PropOp49
 70
     1
102
RTVSPost2010Prop50
 90
       50
102
RTVSPost2010PropOp50
 70
     1
102
RTVSPost2010Prop51ColorIndex
 90
      256
102
RTVSPost2010Prop51ColorRGB
 90
-16777216
102
RTVSPost2010PropOp51
 70
     0
102
RTVSPost2010Prop52
140
1.0
102
RTVSPost2010PropOp52
 70
     0
102
RTVSPost2010Prop53
 90
        2
102
RTVSPost2010PropOp53
 70
     1
102
RTVSPost2010Prop54
  1
strokes_ogs.tif
102
RTVSPost2010PropOp54
 70
     1
102
RTVSPost2010Prop55
280
     0
102
RTVSPost2010PropOp55
 70
     1
102
RTVSPost2010Prop56
140
1.0
102
RTVSPost2010PropOp56
 70
     1
102
RTVSPost2010Prop57
140
1.0
102
RTVSPost2010PropOp57
 70
     1
  0
XRECORD
  5
266
102
{ACAD_REACTORS
330
265
102
}
330
265
100
AcDbXrecord
280
     1
102
RTVSPropertyOp0
 70
     1
102
RTVSPropertyOp1
 70
     1
102
RTVSPropertyOp2
 70
     1
102
RTVSPropertyOp3
 70
     1
102
RTVSPropertyOp4
 70
     1
102
RTVSPropertyOp5
 70
     1
102
RTVSPropertyOp6
 70
     1
102
RTVSPropertyOp7
 70
     1
102
RTVSPropertyOp8
 70
     1
102
RTVSPropertyOp9
 70
     1
102
RTVSPropertyOp10
 70
     1
102
RTVSPropertyOp11
 70
     1
102
RTVSPropertyOp12
 70
     1
102
RTVSPropertyOp13
 70
     1
102
RTVSPropertyOp14
 70
     1
102
RTVSPropertyOp15
 70
     1
102
RTVSPropertyOp16
 70
     1
102
RTVSPropertyOp17
 70
     1
102
RTVSPropertyOp18
 70
     1
102
RTVSPropertyOp19
 70
     1
102
RTVSPropertyOp20
 70
     1
102
RTVSPropertyOp21
 70
     1
102
RTVSPropertyOp22
 70
     1
102
RTVSPropertyOp23
 70
     1
102
RTVSPropertyOp24
 70
     1
102
RTVSPropertyOp25
 70
     1
102
RTVSPropertyOp26
 70
     1
102
RTVSPropertyOp27
 70
     1
102
RTVSPropertyOp28
 70
     1
102
RTVSPropertyOp29
 70
     1
102
RTVSPropertyOp30
 70
     1
102
RTVSPropertyOp31
 70
     1
102
RTVSPropertyOp32
 70
     1
102
RTVSPropertyOp33
 70
     1
102
RTVSPropertyOp34
 70
     1
102
RTVSPropertyOp35
 70
     1
102
RTVSPropertyOp36
 70
     1
102
RTVSPropertyOp37
 70
     1
102
RTVSPropertyOp38
 70
     1
102
RTVSPropertyOp39
 70
     1
102
RTVSPropertyOp40
 70
     1
102
RTVSPropertyOp41
 70
     1
102
RTVSPropertyOp42
 70
     1
102
RTVSPropertyOp43
 70
     1
102
RTVSPropertyOp44
 70
     1
102
RTVSPropertyOp45
 70
     1
102
RTVSPropertyOp46
 70
     1
102
RTVSPropertyOp47
 70
     1
102
RTVSPropertyOp48
 70
     1
102
RTVSPropertyOp49
 70
     1
102
RTVSPropertyOp50
 70
     1
102
RTVSPropertyOp51
 70
     0
102
RTVSPropertyOp52
 70
     0
102
RTVSPropertyOp53
 70
     1
102
RTVSPropertyOp54
 70
     1
102
RTVSPropertyOp55
 70
     1
102
RTVSPropertyOp56
 70
     1
102
RTVSPropertyOp57
 70
     1
102
RTVSPost2010Prop28
280
     0
102
RTVSPost2010PropOp28
 70
     1
102
RTVSPost2010Prop29
280
     1
102
RTVSPost2010PropOp29
 70
     1
102
RTVSPost2010Prop30
280
     1
102
RTVSPost2010PropOp30
 70
     1
102
RTVSPost2010Prop31
280
     0
102
RTVSPost2010PropOp31
 70
     1
102
RTVSPost2010Prop32
280
     0
102
RTVSPost2010PropOp32
 70
     1
102
RTVSPost2010Prop33
280
     0
102
RTVSPost2010PropOp33
 70
     1
102
RTVSPost2010Prop34
280
     0
102
RTVSPost2010PropOp34
 70
     1
102
RTVSPost2010Prop35
280
     0
102
RTVSPost2010PropOp35
 70
     1
102
RTVSPost2010Prop36
280
     0
102
RTVSPost2010PropOp36
 70
     1
102
RTVSPost2010Prop37
 90
       50
102
RTVSPost2010PropOp37
 70
     1
102
RTVSPost2010Prop38
140
0.0
102
RTVSPost2010PropOp38
 70
     1
102
RTVSPost2010Prop39
140
1.0
102
RTVSPost2010PropOp39
 70
     1
102
RTVSPost2010Prop40
 90
        0
102
RTVSPost2010PropOp40
 70
     1
102
RTVSPost2010Prop41ColorIndex
 90
       18
102
RTVSPost2010Prop41ColorRGB
 90
        0
102
RTVSPost2010PropOp41
 70
     1
102
RTVSPost2010Prop42
 90
       50
102
RTVSPost2010PropOp42
 70
     1
102
RTVSPost2010Prop43
 90
        3
102
RTVSPost2010PropOp43
 70
     1
102
RTVSPost2010Prop44ColorIndex
 90
        5
102
RTVSPost2010Prop44ColorRGB
 90
      255
102
RTVSPost2010PropOp44
 70
     1
102
RTVSPost2010Prop45
280
     0
102
RTVSPost2010PropOp45
 70
     1
102
RTVSPost2010Prop46
 90
       50
102
RTVSPost2010PropOp46
 70
     1
102
RTVSPost2010Prop47
 90
       50
102
RTVSPost2010PropOp47
 70
     1
102
RTVSPost2010Prop48
 90
       50
102
RTVSPost2010PropOp48
 70
     1
102
RTVSPost2010Prop49
280
     0
102
RTVSPost2010PropOp49
 70
     1
102
RTVSPost2010Prop50
 90
       50
102
RTVSPost2010PropOp50
 70
     1
102
RTVSPost2010Prop51ColorIndex
 90
      256
102
RTVSPost2010Prop51ColorRGB
 90
-16777216
102
RTVSPost2010PropOp51
 70
     0
102
RTVSPost2010Prop52
140
1.0
102
RTVSPost2010PropOp52
 70
     0
102
RTVSPost2010Prop53
 90
        2
102
RTVSPost2010PropOp53
 70
     1
102
RTVSPost2010Prop54
  1
strokes_ogs.tif
102
RTVSPost2010PropOp54
 70
     1
102
RTVSPost2010Prop55
280
     0
102
RTVSPost2010PropOp55
 70
     1
102
RTVSPost2010Prop56
140
1.0
102
RTVSPost2010PropOp56
 70
     1
102
RTVSPost2010Prop57
140
1.0
102
RTVSPost2010PropOp57
 70
     1
  0
XRECORD
  5
264
102
{ACAD_REACTORS
330
263
102
}
330
263
100
AcDbXrecord
280
     1
102
RTVSPropertyOp0
 70
     1
102
RTVSPropertyOp1
 70
     1
102
RTVSPropertyOp2
 70
     1
102
RTVSPropertyOp3
 70
     1
102
RTVSPropertyOp4
 70
     1
102
RTVSPropertyOp5
 70
     1
102
RTVSPropertyOp6
 70
     1
102
RTVSPropertyOp7
 70
     1
102
RTVSPropertyOp8
 70
     1
102
RTVSPropertyOp9
 70
     1
102
RTVSPropertyOp10
 70
     1
102
RTVSPropertyOp11
 70
     1
102
RTVSPropertyOp12
 70
     1
102
RTVSPropertyOp13
 70
     1
102
RTVSPropertyOp14
 70
     1
102
RTVSPropertyOp15
 70
     1
102
RTVSPropertyOp16
 70
     1
102
RTVSPropertyOp17
 70
     1
102
RTVSPropertyOp18
 70
     1
102
RTVSPropertyOp19
 70
     1
102
RTVSPropertyOp20
 70
     1
102
RTVSPropertyOp21
 70
     1
102
RTVSPropertyOp22
 70
     1
102
RTVSPropertyOp23
 70
     1
102
RTVSPropertyOp24
 70
     1
102
RTVSPropertyOp25
 70
     1
102
RTVSPropertyOp26
 70
     1
102
RTVSPropertyOp27
 70
     1
102
RTVSPropertyOp28
 70
     1
102
RTVSPropertyOp29
 70
     1
102
RTVSPropertyOp30
 70
     1
102
RTVSPropertyOp31
 70
     1
102
RTVSPropertyOp32
 70
     1
102
RTVSPropertyOp33
 70
     1
102
RTVSPropertyOp34
 70
     1
102
RTVSPropertyOp35
 70
     1
102
RTVSPropertyOp36
 70
     1
102
RTVSPropertyOp37
 70
     1
102
RTVSPropertyOp38
 70
     1
102
RTVSPropertyOp39
 70
     1
102
RTVSPropertyOp40
 70
     1
102
RTVSPropertyOp41
 70
     1
102
RTVSPropertyOp42
 70
     1
102
RTVSPropertyOp43
 70
     1
102
RTVSPropertyOp44
 70
     1
102
RTVSPropertyOp45
 70
     1
102
RTVSPropertyOp46
 70
     1
102
RTVSPropertyOp47
 70
     1
102
RTVSPropertyOp48
 70
     1
102
RTVSPropertyOp49
 70
     1
102
RTVSPropertyOp50
 70
     1
102
RTVSPropertyOp51
 70
     0
102
RTVSPropertyOp52
 70
     0
102
RTVSPropertyOp53
 70
     1
102
RTVSPropertyOp54
 70
     1
102
RTVSPropertyOp55
 70
     1
102
RTVSPropertyOp56
 70
     1
102
RTVSPropertyOp57
 70
     1
102
RTVSPost2010Prop28
280
     0
102
RTVSPost2010PropOp28
 70
     1
102
RTVSPost2010Prop29
280
     1
102
RTVSPost2010PropOp29
 70
     1
102
RTVSPost2010Prop30
280
     1
102
RTVSPost2010PropOp30
 70
     1
102
RTVSPost2010Prop31
280
     0
102
RTVSPost2010PropOp31
 70
     1
102
RTVSPost2010Prop32
280
     0
102
RTVSPost2010PropOp32
 70
     1
102
RTVSPost2010Prop33
280
     0
102
RTVSPost2010PropOp33
 70
     1
102
RTVSPost2010Prop34
280
     0
102
RTVSPost2010PropOp34
 70
     1
102
RTVSPost2010Prop35
280
     0
102
RTVSPost2010PropOp35
 70
     1
102
RTVSPost2010Prop36
280
     0
102
RTVSPost2010PropOp36
 70
     1
102
RTVSPost2010Prop37
 90
       50
102
RTVSPost2010PropOp37
 70
     1
102
RTVSPost2010Prop38
140
0.0
102
RTVSPost2010PropOp38
 70
     1
102
RTVSPost2010Prop39
140
1.0
102
RTVSPost2010PropOp39
 70
     1
102
RTVSPost2010Prop40
 90
        0
102
RTVSPost2010PropOp40
 70
     1
102
RTVSPost2010Prop41ColorIndex
 90
       18
102
RTVSPost2010Prop41ColorRGB
 90
        0
102
RTVSPost2010PropOp41
 70
     1
102
RTVSPost2010Prop42
 90
       50
102
RTVSPost2010PropOp42
 70
     1
102
RTVSPost2010Prop43
 90
        3
102
RTVSPost2010PropOp43
 70
     1
102
RTVSPost2010Prop44ColorIndex
 90
        5
102
RTVSPost2010Prop44ColorRGB
 90
      255
102
RTVSPost2010PropOp44
 70
     1
102
RTVSPost2010Prop45
280
     0
102
RTVSPost2010PropOp45
 70
     1
102
RTVSPost2010Prop46
 90
       50
102
RTVSPost2010PropOp46
 70
     1
102
RTVSPost2010Prop47
 90
       50
102
RTVSPost2010PropOp47
 70
     1
102
RTVSPost2010Prop48
 90
       50
102
RTVSPost2010PropOp48
 70
     1
102
RTVSPost2010Prop49
280
     0
102
RTVSPost2010PropOp49
 70
     1
102
RTVSPost2010Prop50
 90
       50
102
RTVSPost2010PropOp50
 70
     1
102
RTVSPost2010Prop51ColorIndex
 90
      256
102
RTVSPost2010Prop51ColorRGB
 90
-16777216
102
RTVSPost2010PropOp51
 70
     0
102
RTVSPost2010Prop52
140
1.0
102
RTVSPost2010PropOp52
 70
     0
102
RTVSPost2010Prop53
 90
        2
102
RTVSPost2010PropOp53
 70
     1
102
RTVSPost2010Prop54
  1
strokes_ogs.tif
102
RTVSPost2010PropOp54
 70
     1
102
RTVSPost2010Prop55
280
     0
102
RTVSPost2010PropOp55
 70
     1
102
RTVSPost2010Prop56
140
1.0
102
RTVSPost2010PropOp56
 70
     1
102
RTVSPost2010Prop57
140
1.0
102
RTVSPost2010PropOp57
 70
     1
  0
XRECORD
  5
25E
102
{ACAD_REACTORS
330
25D
102
}
330
25D
100
AcDbXrecord
280
     1
102
RTVSPropertyOp0
 70
     1
102
RTVSPropertyOp1
 70
     1
102
RTVSPropertyOp2
 70
     1
102
RTVSPropertyOp3
 70
     1
102
RTVSPropertyOp4
 70
     1
102
RTVSPropertyOp5
 70
     1
102
RTVSPropertyOp6
 70
     1
102
RTVSPropertyOp7
 70
     1
102
RTVSPropertyOp8
 70
     1
102
RTVSPropertyOp9
 70
     1
102
RTVSPropertyOp10
 70
     1
102
RTVSPropertyOp11
 70
     1
102
RTVSPropertyOp12
 70
     1
102
RTVSPropertyOp13
 70
     1
102
RTVSPropertyOp14
 70
     1
102
RTVSPropertyOp15
 70
     1
102
RTVSPropertyOp16
 70
     1
102
RTVSPropertyOp17
 70
     1
102
RTVSPropertyOp18
 70
     1
102
RTVSPropertyOp19
 70
     1
102
RTVSPropertyOp20
 70
     1
102
RTVSPropertyOp21
 70
     1
102
RTVSPropertyOp22
 70
     1
102
RTVSPropertyOp23
 70
     1
102
RTVSPropertyOp24
 70
     1
102
RTVSPropertyOp25
 70
     1
102
RTVSPropertyOp26
 70
     1
102
RTVSPropertyOp27
 70
     1
102
RTVSPropertyOp28
 70
     1
102
RTVSPropertyOp29
 70
     1
102
RTVSPropertyOp30
 70
     1
102
RTVSPropertyOp31
 70
     1
102
RTVSPropertyOp32
 70
     1
102
RTVSPropertyOp33
 70
     1
102
RTVSPropertyOp34
 70
     1
102
RTVSPropertyOp35
 70
     1
102
RTVSPropertyOp36
 70
     1
102
RTVSPropertyOp37
 70
     1
102
RTVSPropertyOp38
 70
     1
102
RTVSPropertyOp39
 70
     1
102
RTVSPropertyOp40
 70
     1
102
RTVSPropertyOp41
 70
     1
102
RTVSPropertyOp42
 70
     1
102
RTVSPropertyOp43
 70
     1
102
RTVSPropertyOp44
 70
     1
102
RTVSPropertyOp45
 70
     1
102
RTVSPropertyOp46
 70
     1
102
RTVSPropertyOp47
 70
     1
102
RTVSPropertyOp48
 70
     1
102
RTVSPropertyOp49
 70
     1
102
RTVSPropertyOp50
 70
     1
102
RTVSPropertyOp51
 70
     0
102
RTVSPropertyOp52
 70
     0
102
RTVSPropertyOp53
 70
     1
102
RTVSPropertyOp54
 70
     1
102
RTVSPropertyOp55
 70
     1
102
RTVSPropertyOp56
 70
     1
102
RTVSPropertyOp57
 70
     1
102
RTVSPost2010Prop28
280
     0
102
RTVSPost2010PropOp28
 70
     1
102
RTVSPost2010Prop29
280
     1
102
RTVSPost2010PropOp29
 70
     1
102
RTVSPost2010Prop30
280
     1
102
RTVSPost2010PropOp30
 70
     1
102
RTVSPost2010Prop31
280
     0
102
RTVSPost2010PropOp31
 70
     1
102
RTVSPost2010Prop32
280
     0
102
RTVSPost2010PropOp32
 70
     1
102
RTVSPost2010Prop33
280
     0
102
RTVSPost2010PropOp33
 70
     1
102
RTVSPost2010Prop34
280
     0
102
RTVSPost2010PropOp34
 70
     1
102
RTVSPost2010Prop35
280
     0
102
RTVSPost2010PropOp35
 70
     1
102
RTVSPost2010Prop36
280
     0
102
RTVSPost2010PropOp36
 70
     1
102
RTVSPost2010Prop37
 90
       50
102
RTVSPost2010PropOp37
 70
     1
102
RTVSPost2010Prop38
140
0.0
102
RTVSPost2010PropOp38
 70
     1
102
RTVSPost2010Prop39
140
1.0
102
RTVSPost2010PropOp39
 70
     1
102
RTVSPost2010Prop40
 90
        0
102
RTVSPost2010PropOp40
 70
     1
102
RTVSPost2010Prop41ColorIndex
 90
       18
102
RTVSPost2010Prop41ColorRGB
 90
        0
102
RTVSPost2010PropOp41
 70
     1
102
RTVSPost2010Prop42
 90
       50
102
RTVSPost2010PropOp42
 70
     1
102
RTVSPost2010Prop43
 90
        3
102
RTVSPost2010PropOp43
 70
     1
102
RTVSPost2010Prop44ColorIndex
 90
        5
102
RTVSPost2010Prop44ColorRGB
 90
      255
102
RTVSPost2010PropOp44
 70
     1
102
RTVSPost2010Prop45
280
     0
102
RTVSPost2010PropOp45
 70
     1
102
RTVSPost2010Prop46
 90
       50
102
RTVSPost2010PropOp46
 70
     1
102
RTVSPost2010Prop47
 90
       50
102
RTVSPost2010PropOp47
 70
     1
102
RTVSPost2010Prop48
 90
       50
102
RTVSPost2010PropOp48
 70
     1
102
RTVSPost2010Prop49
280
     0
102
RTVSPost2010PropOp49
 70
     1
102
RTVSPost2010Prop50
 90
       50
102
RTVSPost2010PropOp50
 70
     1
102
RTVSPost2010Prop51ColorIndex
 90
      256
102
RTVSPost2010Prop51ColorRGB
 90
-16777216
102
RTVSPost2010PropOp51
 70
     0
102
RTVSPost2010Prop52
140
1.0
102
RTVSPost2010PropOp52
 70
     0
102
RTVSPost2010Prop53
 90
        2
102
RTVSPost2010PropOp53
 70
     1
102
RTVSPost2010Prop54
  1
strokes_ogs.tif
102
RTVSPost2010PropOp54
 70
     1
102
RTVSPost2010Prop55
280
     0
102
RTVSPost2010PropOp55
 70
     1
102
RTVSPost2010Prop56
140
1.0
102
RTVSPost2010PropOp56
 70
     1
102
RTVSPost2010Prop57
140
1.0
102
RTVSPost2010PropOp57
 70
     1
  0
XRECORD
  5
260
102
{ACAD_REACTORS
330
25F
102
}
330
25F
100
AcDbXrecord
280
     1
102
RTVSPropertyOp0
 70
     1
102
RTVSPropertyOp1
 70
     1
102
RTVSPropertyOp2
 70
     1
102
RTVSPropertyOp3
 70
     1
102
RTVSPropertyOp4
 70
     1
102
RTVSPropertyOp5
 70
     1
102
RTVSPropertyOp6
 70
     1
102
RTVSPropertyOp7
 70
     1
102
RTVSPropertyOp8
 70
     1
102
RTVSPropertyOp9
 70
     1
102
RTVSPropertyOp10
 70
     1
102
RTVSPropertyOp11
 70
     1
102
RTVSPropertyOp12
 70
     1
102
RTVSPropertyOp13
 70
     1
102
RTVSPropertyOp14
 70
     1
102
RTVSPropertyOp15
 70
     1
102
RTVSPropertyOp16
 70
     1
102
RTVSPropertyOp17
 70
     1
102
RTVSPropertyOp18
 70
     1
102
RTVSPropertyOp19
 70
     1
102
RTVSPropertyOp20
 70
     1
102
RTVSPropertyOp21
 70
     1
102
RTVSPropertyOp22
 70
     1
102
RTVSPropertyOp23
 70
     1
102
RTVSPropertyOp24
 70
     1
102
RTVSPropertyOp25
 70
     1
102
RTVSPropertyOp26
 70
     1
102
RTVSPropertyOp27
 70
     1
102
RTVSPropertyOp28
 70
     1
102
RTVSPropertyOp29
 70
     1
102
RTVSPropertyOp30
 70
     1
102
RTVSPropertyOp31
 70
     1
102
RTVSPropertyOp32
 70
     1
102
RTVSPropertyOp33
 70
     1
102
RTVSPropertyOp34
 70
     1
102
RTVSPropertyOp35
 70
     1
102
RTVSPropertyOp36
 70
     1
102
RTVSPropertyOp37
 70
     1
102
RTVSPropertyOp38
 70
     1
102
RTVSPropertyOp39
 70
     1
102
RTVSPropertyOp40
 70
     1
102
RTVSPropertyOp41
 70
     1
102
RTVSPropertyOp42
 70
     1
102
RTVSPropertyOp43
 70
     1
102
RTVSPropertyOp44
 70
     1
102
RTVSPropertyOp45
 70
     1
102
RTVSPropertyOp46
 70
     1
102
RTVSPropertyOp47
 70
     1
102
RTVSPropertyOp48
 70
     1
102
RTVSPropertyOp49
 70
     1
102
RTVSPropertyOp50
 70
     1
102
RTVSPropertyOp51
 70
     0
102
RTVSPropertyOp52
 70
     0
102
RTVSPropertyOp53
 70
     1
102
RTVSPropertyOp54
 70
     1
102
RTVSPropertyOp55
 70
     1
102
RTVSPropertyOp56
 70
     1
102
RTVSPropertyOp57
 70
     1
102
RTVSPost2010Prop28
280
     0
102
RTVSPost2010PropOp28
 70
     1
102
RTVSPost2010Prop29
280
     1
102
RTVSPost2010PropOp29
 70
     1
102
RTVSPost2010Prop30
280
     1
102
RTVSPost2010PropOp30
 70
     1
102
RTVSPost2010Prop31
280
     0
102
RTVSPost2010PropOp31
 70
     1
102
RTVSPost2010Prop32
280
     0
102
RTVSPost2010PropOp32
 70
     1
102
RTVSPost2010Prop33
280
     0
102
RTVSPost2010PropOp33
 70
     1
102
RTVSPost2010Prop34
280
     0
102
RTVSPost2010PropOp34
 70
     1
102
RTVSPost2010Prop35
280
     0
102
RTVSPost2010PropOp35
 70
     1
102
RTVSPost2010Prop36
280
     0
102
RTVSPost2010PropOp36
 70
     1
102
RTVSPost2010Prop37
 90
       50
102
RTVSPost2010PropOp37
 70
     1
102
RTVSPost2010Prop38
140
0.0
102
RTVSPost2010PropOp38
 70
     1
102
RTVSPost2010Prop39
140
1.0
102
RTVSPost2010PropOp39
 70
     1
102
RTVSPost2010Prop40
 90
        0
102
RTVSPost2010PropOp40
 70
     1
102
RTVSPost2010Prop41ColorIndex
 90
       18
102
RTVSPost2010Prop41ColorRGB
 90
        0
102
RTVSPost2010PropOp41
 70
     1
102
RTVSPost2010Prop42
 90
       50
102
RTVSPost2010PropOp42
 70
     1
102
RTVSPost2010Prop43
 90
        3
102
RTVSPost2010PropOp43
 70
     1
102
RTVSPost2010Prop44ColorIndex
 90
        5
102
RTVSPost2010Prop44ColorRGB
 90
      255
102
RTVSPost2010PropOp44
 70
     1
102
RTVSPost2010Prop45
280
     0
102
RTVSPost2010PropOp45
 70
     1
102
RTVSPost2010Prop46
 90
       50
102
RTVSPost2010PropOp46
 70
     1
102
RTVSPost2010Prop47
 90
       50
102
RTVSPost2010PropOp47
 70
     1
102
RTVSPost2010Prop48
 90
       50
102
RTVSPost2010PropOp48
 70
     1
102
RTVSPost2010Prop49
280
     0
102
RTVSPost2010PropOp49
 70
     1
102
RTVSPost2010Prop50
 90
       50
102
RTVSPost2010PropOp50
 70
     1
102
RTVSPost2010Prop51ColorIndex
 90
      256
102
RTVSPost2010Prop51ColorRGB
 90
-16777216
102
RTVSPost2010PropOp51
 70
     0
102
RTVSPost2010Prop52
140
1.0
102
RTVSPost2010PropOp52
 70
     0
102
RTVSPost2010Prop53
 90
        2
102
RTVSPost2010PropOp53
 70
     1
102
RTVSPost2010Prop54
  1
strokes_ogs.tif
102
RTVSPost2010PropOp54
 70
     1
102
RTVSPost2010Prop55
280
     0
102
RTVSPost2010PropOp55
 70
     1
102
RTVSPost2010Prop56
140
1.0
102
RTVSPost2010PropOp56
 70
     1
102
RTVSPost2010Prop57
140
1.0
102
RTVSPost2010PropOp57
 70
     1
  0
XRECORD
  5
250
102
{ACAD_REACTORS
330
24F
102
}
330
24F
100
AcDbXrecord
280
     1
102
RTVSPropertyOp0
 70
     1
102
RTVSPropertyOp1
 70
     1
102
RTVSPropertyOp2
 70
     1
102
RTVSPropertyOp3
 70
     1
102
RTVSPropertyOp4
 70
     1
102
RTVSPropertyOp5
 70
     1
102
RTVSPropertyOp6
 70
     1
102
RTVSPropertyOp7
 70
     1
102
RTVSPropertyOp8
 70
     1
102
RTVSPropertyOp9
 70
     1
102
RTVSPropertyOp10
 70
     1
102
RTVSPropertyOp11
 70
     1
102
RTVSPropertyOp12
 70
     1
102
RTVSPropertyOp13
 70
     1
102
RTVSPropertyOp14
 70
     1
102
RTVSPropertyOp15
 70
     1
102
RTVSPropertyOp16
 70
     1
102
RTVSPropertyOp17
 70
     1
102
RTVSPropertyOp18
 70
     1
102
RTVSPropertyOp19
 70
     1
102
RTVSPropertyOp20
 70
     1
102
RTVSPropertyOp21
 70
     1
102
RTVSPropertyOp22
 70
     1
102
RTVSPropertyOp23
 70
     1
102
RTVSPropertyOp24
 70
     1
102
RTVSPropertyOp25
 70
     1
102
RTVSPropertyOp26
 70
     1
102
RTVSPropertyOp27
 70
     1
102
RTVSPropertyOp28
 70
     1
102
RTVSPropertyOp29
 70
     1
102
RTVSPropertyOp30
 70
     1
102
RTVSPropertyOp31
 70
     1
102
RTVSPropertyOp32
 70
     1
102
RTVSPropertyOp33
 70
     1
102
RTVSPropertyOp34
 70
     1
102
RTVSPropertyOp35
 70
     1
102
RTVSPropertyOp36
 70
     1
102
RTVSPropertyOp37
 70
     1
102
RTVSPropertyOp38
 70
     1
102
RTVSPropertyOp39
 70
     1
102
RTVSPropertyOp40
 70
     1
102
RTVSPropertyOp41
 70
     1
102
RTVSPropertyOp42
 70
     1
102
RTVSPropertyOp43
 70
     1
102
RTVSPropertyOp44
 70
     1
102
RTVSPropertyOp45
 70
     1
102
RTVSPropertyOp46
 70
     1
102
RTVSPropertyOp47
 70
     1
102
RTVSPropertyOp48
 70
     1
102
RTVSPropertyOp49
 70
     1
102
RTVSPropertyOp50
 70
     1
102
RTVSPropertyOp51
 70
     0
102
RTVSPropertyOp52
 70
     0
102
RTVSPropertyOp53
 70
     1
102
RTVSPropertyOp54
 70
     1
102
RTVSPropertyOp55
 70
     1
102
RTVSPropertyOp56
 70
     1
102
RTVSPropertyOp57
 70
     1
102
RTVSPost2010Prop28
280
     0
102
RTVSPost2010PropOp28
 70
     1
102
RTVSPost2010Prop29
280
     1
102
RTVSPost2010PropOp29
 70
     1
102
RTVSPost2010Prop30
280
     1
102
RTVSPost2010PropOp30
 70
     1
102
RTVSPost2010Prop31
280
     0
102
RTVSPost2010PropOp31
 70
     1
102
RTVSPost2010Prop32
280
     0
102
RTVSPost2010PropOp32
 70
     1
102
RTVSPost2010Prop33
280
     0
102
RTVSPost2010PropOp33
 70
     1
102
RTVSPost2010Prop34
280
     0
102
RTVSPost2010PropOp34
 70
     1
102
RTVSPost2010Prop35
280
     0
102
RTVSPost2010PropOp35
 70
     1
102
RTVSPost2010Prop36
280
     0
102
RTVSPost2010PropOp36
 70
     1
102
RTVSPost2010Prop37
 90
       50
102
RTVSPost2010PropOp37
 70
     1
102
RTVSPost2010Prop38
140
0.0
102
RTVSPost2010PropOp38
 70
     1
102
RTVSPost2010Prop39
140
1.0
102
RTVSPost2010PropOp39
 70
     1
102
RTVSPost2010Prop40
 90
        0
102
RTVSPost2010PropOp40
 70
     1
102
RTVSPost2010Prop41ColorIndex
 90
       18
102
RTVSPost2010Prop41ColorRGB
 90
        0
102
RTVSPost2010PropOp41
 70
     1
102
RTVSPost2010Prop42
 90
       50
102
RTVSPost2010PropOp42
 70
     1
102
RTVSPost2010Prop43
 90
        3
102
RTVSPost2010PropOp43
 70
     1
102
RTVSPost2010Prop44ColorIndex
 90
        5
102
RTVSPost2010Prop44ColorRGB
 90
      255
102
RTVSPost2010PropOp44
 70
     1
102
RTVSPost2010Prop45
280
     0
102
RTVSPost2010PropOp45
 70
     1
102
RTVSPost2010Prop46
 90
       50
102
RTVSPost2010PropOp46
 70
     1
102
RTVSPost2010Prop47
 90
       50
102
RTVSPost2010PropOp47
 70
     1
102
RTVSPost2010Prop48
 90
       50
102
RTVSPost2010PropOp48
 70
     1
102
RTVSPost2010Prop49
280
     0
102
RTVSPost2010PropOp49
 70
     1
102
RTVSPost2010Prop50
 90
       50
102
RTVSPost2010PropOp50
 70
     1
102
RTVSPost2010Prop51ColorIndex
 90
      256
102
RTVSPost2010Prop51ColorRGB
 90
-16777216
102
RTVSPost2010PropOp51
 70
     0
102
RTVSPost2010Prop52
140
1.0
102
RTVSPost2010PropOp52
 70
     0
102
RTVSPost2010Prop53
 90
        2
102
RTVSPost2010PropOp53
 70
     1
102
RTVSPost2010Prop54
  1
strokes_ogs.tif
102
RTVSPost2010PropOp54
 70
     1
102
RTVSPost2010Prop55
280
     0
102
RTVSPost2010PropOp55
 70
     1
102
RTVSPost2010Prop56
140
1.0
102
RTVSPost2010PropOp56
 70
     1
102
RTVSPost2010Prop57
140
1.0
102
RTVSPost2010PropOp57
 70
     1
  0
XRECORD
  5
242
102
{ACAD_REACTORS
330
241
102
}
330
241
100
AcDbXrecord
280
     1
102
RTVSPropertyOp0
 70
     1
102
RTVSPropertyOp1
 70
     1
102
RTVSPropertyOp2
 70
     1
102
RTVSPropertyOp3
 70
     1
102
RTVSPropertyOp4
 70
     1
102
RTVSPropertyOp5
 70
     1
102
RTVSPropertyOp6
 70
     1
102
RTVSPropertyOp7
 70
     1
102
RTVSPropertyOp8
 70
     1
102
RTVSPropertyOp9
 70
     1
102
RTVSPropertyOp10
 70
     1
102
RTVSPropertyOp11
 70
     1
102
RTVSPropertyOp12
 70
     1
102
RTVSPropertyOp13
 70
     1
102
RTVSPropertyOp14
 70
     1
102
RTVSPropertyOp15
 70
     1
102
RTVSPropertyOp16
 70
     1
102
RTVSPropertyOp17
 70
     1
102
RTVSPropertyOp18
 70
     1
102
RTVSPropertyOp19
 70
     1
102
RTVSPropertyOp20
 70
     1
102
RTVSPropertyOp21
 70
     1
102
RTVSPropertyOp22
 70
     1
102
RTVSPropertyOp23
 70
     1
102
RTVSPropertyOp24
 70
     1
102
RTVSPropertyOp25
 70
     1
102
RTVSPropertyOp26
 70
     1
102
RTVSPropertyOp27
 70
     1
102
RTVSPropertyOp28
 70
     1
102
RTVSPropertyOp29
 70
     1
102
RTVSPropertyOp30
 70
     1
102
RTVSPropertyOp31
 70
     1
102
RTVSPropertyOp32
 70
     1
102
RTVSPropertyOp33
 70
     1
102
RTVSPropertyOp34
 70
     1
102
RTVSPropertyOp35
 70
     1
102
RTVSPropertyOp36
 70
     1
102
RTVSPropertyOp37
 70
     1
102
RTVSPropertyOp38
 70
     1
102
RTVSPropertyOp39
 70
     1
102
RTVSPropertyOp40
 70
     1
102
RTVSPropertyOp41
 70
     1
102
RTVSPropertyOp42
 70
     1
102
RTVSPropertyOp43
 70
     1
102
RTVSPropertyOp44
 70
     1
102
RTVSPropertyOp45
 70
     1
102
RTVSPropertyOp46
 70
     1
102
RTVSPropertyOp47
 70
     1
102
RTVSPropertyOp48
 70
     1
102
RTVSPropertyOp49
 70
     1
102
RTVSPropertyOp50
 70
     1
102
RTVSPropertyOp51
 70
     0
102
RTVSPropertyOp52
 70
     0
102
RTVSPropertyOp53
 70
     1
102
RTVSPropertyOp54
 70
     1
102
RTVSPropertyOp55
 70
     1
102
RTVSPropertyOp56
 70
     1
102
RTVSPropertyOp57
 70
     1
102
RTVSPost2010Prop28
280
     0
102
RTVSPost2010PropOp28
 70
     1
102
RTVSPost2010Prop29
280
     1
102
RTVSPost2010PropOp29
 70
     1
102
RTVSPost2010Prop30
280
     1
102
RTVSPost2010PropOp30
 70
     1
102
RTVSPost2010Prop31
280
     0
102
RTVSPost2010PropOp31
 70
     1
102
RTVSPost2010Prop32
280
     0
102
RTVSPost2010PropOp32
 70
     1
102
RTVSPost2010Prop33
280
     0
102
RTVSPost2010PropOp33
 70
     1
102
RTVSPost2010Prop34
280
     0
102
RTVSPost2010PropOp34
 70
     1
102
RTVSPost2010Prop35
280
     0
102
RTVSPost2010PropOp35
 70
     1
102
RTVSPost2010Prop36
280
     0
102
RTVSPost2010PropOp36
 70
     1
102
RTVSPost2010Prop37
 90
       50
102
RTVSPost2010PropOp37
 70
     1
102
RTVSPost2010Prop38
140
0.0
102
RTVSPost2010PropOp38
 70
     1
102
RTVSPost2010Prop39
140
1.0
102
RTVSPost2010PropOp39
 70
     1
102
RTVSPost2010Prop40
 90
        0
102
RTVSPost2010PropOp40
 70
     1
102
RTVSPost2010Prop41ColorIndex
 90
       18
102
RTVSPost2010Prop41ColorRGB
 90
        0
102
RTVSPost2010PropOp41
 70
     1
102
RTVSPost2010Prop42
 90
       50
102
RTVSPost2010PropOp42
 70
     1
102
RTVSPost2010Prop43
 90
        3
102
RTVSPost2010PropOp43
 70
     1
102
RTVSPost2010Prop44ColorIndex
 90
        5
102
RTVSPost2010Prop44ColorRGB
 90
      255
102
RTVSPost2010PropOp44
 70
     1
102
RTVSPost2010Prop45
280
     0
102
RTVSPost2010PropOp45
 70
     1
102
RTVSPost2010Prop46
 90
       50
102
RTVSPost2010PropOp46
 70
     1
102
RTVSPost2010Prop47
 90
       50
102
RTVSPost2010PropOp47
 70
     1
102
RTVSPost2010Prop48
 90
       50
102
RTVSPost2010PropOp48
 70
     1
102
RTVSPost2010Prop49
280
     0
102
RTVSPost2010PropOp49
 70
     1
102
RTVSPost2010Prop50
 90
       50
102
RTVSPost2010PropOp50
 70
     1
102
RTVSPost2010Prop51ColorIndex
 90
      256
102
RTVSPost2010Prop51ColorRGB
 90
-16777216
102
RTVSPost2010PropOp51
 70
     0
102
RTVSPost2010Prop52
140
1.0
102
RTVSPost2010PropOp52
 70
     0
102
RTVSPost2010Prop53
 90
        2
102
RTVSPost2010PropOp53
 70
     1
102
RTVSPost2010Prop54
  1
strokes_ogs.tif
102
RTVSPost2010PropOp54
 70
     1
102
RTVSPost2010Prop55
280
     0
102
RTVSPost2010PropOp55
 70
     1
102
RTVSPost2010Prop56
140
1.0
102
RTVSPost2010PropOp56
 70
     1
102
RTVSPost2010Prop57
140
1.0
102
RTVSPost2010PropOp57
 70
     1
  0
XRECORD
  5
262
102
{ACAD_REACTORS
330
261
102
}
330
261
100
AcDbXrecord
280
     1
102
RTVSPropertyOp0
 70
     1
102
RTVSPropertyOp1
 70
     1
102
RTVSPropertyOp2
 70
     1
102
RTVSPropertyOp3
 70
     1
102
RTVSPropertyOp4
 70
     1
102
RTVSPropertyOp5
 70
     1
102
RTVSPropertyOp6
 70
     1
102
RTVSPropertyOp7
 70
     1
102
RTVSPropertyOp8
 70
     1
102
RTVSPropertyOp9
 70
     1
102
RTVSPropertyOp10
 70
     1
102
RTVSPropertyOp11
 70
     1
102
RTVSPropertyOp12
 70
     1
102
RTVSPropertyOp13
 70
     1
102
RTVSPropertyOp14
 70
     1
102
RTVSPropertyOp15
 70
     1
102
RTVSPropertyOp16
 70
     1
102
RTVSPropertyOp17
 70
     1
102
RTVSPropertyOp18
 70
     1
102
RTVSPropertyOp19
 70
     1
102
RTVSPropertyOp20
 70
     1
102
RTVSPropertyOp21
 70
     1
102
RTVSPropertyOp22
 70
     1
102
RTVSPropertyOp23
 70
     1
102
RTVSPropertyOp24
 70
     1
102
RTVSPropertyOp25
 70
     1
102
RTVSPropertyOp26
 70
     1
102
RTVSPropertyOp27
 70
     1
102
RTVSPropertyOp28
 70
     1
102
RTVSPropertyOp29
 70
     1
102
RTVSPropertyOp30
 70
     1
102
RTVSPropertyOp31
 70
     1
102
RTVSPropertyOp32
 70
     1
102
RTVSPropertyOp33
 70
     1
102
RTVSPropertyOp34
 70
     1
102
RTVSPropertyOp35
 70
     1
102
RTVSPropertyOp36
 70
     1
102
RTVSPropertyOp37
 70
     1
102
RTVSPropertyOp38
 70
     1
102
RTVSPropertyOp39
 70
     1
102
RTVSPropertyOp40
 70
     1
102
RTVSPropertyOp41
 70
     1
102
RTVSPropertyOp42
 70
     1
102
RTVSPropertyOp43
 70
     1
102
RTVSPropertyOp44
 70
     1
102
RTVSPropertyOp45
 70
     1
102
RTVSPropertyOp46
 70
     1
102
RTVSPropertyOp47
 70
     1
102
RTVSPropertyOp48
 70
     1
102
RTVSPropertyOp49
 70
     1
102
RTVSPropertyOp50
 70
     1
102
RTVSPropertyOp51
 70
     0
102
RTVSPropertyOp52
 70
     0
102
RTVSPropertyOp53
 70
     1
102
RTVSPropertyOp54
 70
     1
102
RTVSPropertyOp55
 70
     1
102
RTVSPropertyOp56
 70
     1
102
RTVSPropertyOp57
 70
     1
102
RTVSPost2010Prop28
280
     0
102
RTVSPost2010PropOp28
 70
     1
102
RTVSPost2010Prop29
280
     1
102
RTVSPost2010PropOp29
 70
     1
102
RTVSPost2010Prop30
280
     1
102
RTVSPost2010PropOp30
 70
     1
102
RTVSPost2010Prop31
280
     0
102
RTVSPost2010PropOp31
 70
     1
102
RTVSPost2010Prop32
280
     0
102
RTVSPost2010PropOp32
 70
     1
102
RTVSPost2010Prop33
280
     0
102
RTVSPost2010PropOp33
 70
     1
102
RTVSPost2010Prop34
280
     0
102
RTVSPost2010PropOp34
 70
     1
102
RTVSPost2010Prop35
280
     0
102
RTVSPost2010PropOp35
 70
     1
102
RTVSPost2010Prop36
280
     0
102
RTVSPost2010PropOp36
 70
     1
102
RTVSPost2010Prop37
 90
       50
102
RTVSPost2010PropOp37
 70
     1
102
RTVSPost2010Prop38
140
0.0
102
RTVSPost2010PropOp38
 70
     1
102
RTVSPost2010Prop39
140
1.0
102
RTVSPost2010PropOp39
 70
     1
102
RTVSPost2010Prop40
 90
        0
102
RTVSPost2010PropOp40
 70
     1
102
RTVSPost2010Prop41ColorIndex
 90
       18
102
RTVSPost2010Prop41ColorRGB
 90
        0
102
RTVSPost2010PropOp41
 70
     1
102
RTVSPost2010Prop42
 90
       50
102
RTVSPost2010PropOp42
 70
     1
102
RTVSPost2010Prop43
 90
        3
102
RTVSPost2010PropOp43
 70
     1
102
RTVSPost2010Prop44ColorIndex
 90
        5
102
RTVSPost2010Prop44ColorRGB
 90
      255
102
RTVSPost2010PropOp44
 70
     1
102
RTVSPost2010Prop45
280
     0
102
RTVSPost2010PropOp45
 70
     1
102
RTVSPost2010Prop46
 90
       50
102
RTVSPost2010PropOp46
 70
     1
102
RTVSPost2010Prop47
 90
       50
102
RTVSPost2010PropOp47
 70
     1
102
RTVSPost2010Prop48
 90
       50
102
RTVSPost2010PropOp48
 70
     1
102
RTVSPost2010Prop49
280
     0
102
RTVSPost2010PropOp49
 70
     1
102
RTVSPost2010Prop50
 90
       50
102
RTVSPost2010PropOp50
 70
     1
102
RTVSPost2010Prop51ColorIndex
 90
      256
102
RTVSPost2010Prop51ColorRGB
 90
-16777216
102
RTVSPost2010PropOp51
 70
     0
102
RTVSPost2010Prop52
140
1.0
102
RTVSPost2010PropOp52
 70
     0
102
RTVSPost2010Prop53
 90
        2
102
RTVSPost2010PropOp53
 70
     1
102
RTVSPost2010Prop54
  1
strokes_ogs.tif
102
RTVSPost2010PropOp54
 70
     1
102
RTVSPost2010Prop55
280
     0
102
RTVSPost2010PropOp55
 70
     1
102
RTVSPost2010Prop56
140
1.0
102
RTVSPost2010PropOp56
 70
     1
102
RTVSPost2010Prop57
140
1.0
102
RTVSPost2010PropOp57
 70
     1
  0
ENDSEC
  0
EOF
